  0
SECTION
  2
HEADER
  9
$ACADVER
  1
AC1015
  9
$ACADMAINTVER
 70
     6
  9
$DWGCODEPAGE
  3
ANSI_1252
  9
$INSBASE
 10
0.0
 20
0.0
 30
0.0
  9
$EXTMIN
 10
0.0
 20
0.0
 30
0.0
  9
$EXTMAX
 10
11.0
 20
8.5
 30
0.0
  9
$LIMMIN
 10
0.0
 20
0.0
  9
$LIMMAX
 10
11.0
 20
8.5
  9
$ORTHOMODE
 70
     0
  9
$REGENMODE
 70
     1
  9
$FILLMODE
 70
     1
  9
$QTEXTMODE
 70
     0
  9
$MIRRTEXT
 70
     1
  9
$LTSCALE
 40
1.0
  9
$ATTMODE
 70
     1
  9
$TEXTSIZE
 40
0.1944444444
  9
$TRACEWID
 40
0.05
  9
$TEXTSTYLE
  7
Standard
  9
$CLAYER
  8
0
  9
$CELTYPE
  6
ByLayer
  9
$CECOLOR
 62
   256
  9
$CELTSCALE
 40
1.0
  9
$DISPSILH
 70
     0
  9
$DIMSCALE
 40
1.0
  9
$DIMASZ
 40
0.12
  9
$DIMEXO
 40
0.039
  9
$DIMDLI
 40
0.38
  9
$DIMRND
 40
0.0
  9
$DIMDLE
 40
0.0
  9
$DIMEXE
 40
0.039
  9
$DIMTP
 40
0.0
  9
$DIMTM
 40
0.0
  9
$DIMTXT
 40
0.1111111111
  9
$DIMCEN
 40
0.09
  9
$DIMTSZ
 40
0.0
  9
$DIMTOL
 70
     0
  9
$DIMLIM
 70
     0
  9
$DIMTIH
 70
     1
  9
$DIMTOH
 70
     1
  9
$DIMSE1
 70
     0
  9
$DIMSE2
 70
     0
  9
$DIMTAD
 70
     1
  9
$DIMZIN
 70
     1
  9
$DIMBLK
  1

  9
$DIMASO
 70
     1
  9
$DIMSHO
 70
     1
  9
$DIMPOST
  1

  9
$DIMAPOST
  1

  9
$DIMALT
 70
     0
  9
$DIMALTD
 70
     2
  9
$DIMALTF
 40
25.4
  9
$DIMLFAC
 40
1.0
  9
$DIMTOFL
 70
     0
  9
$DIMTVP
 40
0.0
  9
$DIMTIX
 70
     0
  9
$DIMSOXD
 70
     0
  9
$DIMSAH
 70
     0
  9
$DIMBLK1
  1

  9
$DIMBLK2
  1

  9
$DIMSTYLE
  2
Standard
  9
$DIMCLRD
 70
     0
  9
$DIMCLRE
 70
     0
  9
$DIMCLRT
 70
     0
  9
$DIMTFAC
 40
1.0
  9
$DIMGAP
 40
0.06
  9
$DIMJUST
 70
     0
  9
$DIMSD1
 70
     0
  9
$DIMSD2
 70
     0
  9
$DIMTOLJ
 70
     1
  9
$DIMTZIN
 70
     1
  9
$DIMALTZ
 70
     0
  9
$DIMALTTZ
 70
     0
  9
$DIMUPT
 70
     0
  9
$DIMDEC
 70
     3
  9
$DIMTDEC
 70
     2
  9
$DIMALTU
 70
     2
  9
$DIMALTTD
 70
     2
  9
$DIMTXSTY
  7
Standard
  9
$DIMAUNIT
 70
     0
  9
$DIMADEC
 70
     0
  9
$DIMALTRND
 40
0.0
  9
$DIMAZIN
 70
     0
  9
$DIMDSEP
 70
    46
  9
$DIMATFIT
 70
     3
  9
$DIMFRAC
 70
     0
  9
$DIMLDRBLK
  1

  9
$DIMLUNIT
 70
     2
  9
$DIMLWD
 70
    -2
  9
$DIMLWE
 70
    -2
  9
$DIMTMOVE
 70
     0
  9
$LUNITS
 70
     2
  9
$LUPREC
 70
     3
  9
$SKETCHINC
 40
0.1
  9
$FILLETRAD
 40
0.5
  9
$AUNITS
 70
     0
  9
$AUPREC
 70
     0
  9
$MENU
  1
.
  9
$ELEVATION
 40
0.0
  9
$PELEVATION
 40
0.0
  9
$THICKNESS
 40
0.0
  9
$LIMCHECK
 70
     0
  9
$CHAMFERA
 40
0.5
  9
$CHAMFERB
 40
0.5
  9
$CHAMFERC
 40
1.0
  9
$CHAMFERD
 40
0.0
  9
$SKPOLY
 70
     0
  9
$TDCREATE
 40
2455972.395784884
  9
$TDUCREATE
 40
2455972.687451551
  9
$TDUPDATE
 40
2455972.395786597
  9
$TDUUPDATE
 40
2455972.687453264
  9
$TDINDWG
 40
0.0000000116
  9
$TDUSRTIMER
 40
0.0000000116
  9
$USRTIMER
 70
     1
  9
$ANGBASE
 50
0.0
  9
$ANGDIR
 70
     0
  9
$PDMODE
 70
     0
  9
$PDSIZE
 40
-1.0
  9
$PLINEWID
 40
0.0
  9
$SPLFRAME
 70
     0
  9
$SPLINETYPE
 70
     6
  9
$SPLINESEGS
 70
     8
  9
$HANDSEED
  5
4A0
  9
$SURFTAB1
 70
     6
  9
$SURFTAB2
 70
     6
  9
$SURFTYPE
 70
     6
  9
$SURFU
 70
     6
  9
$SURFV
 70
     6
  9
$UCSBASE
  2

  9
$UCSNAME
  2

  9
$UCSORG
 10
0.0
 20
0.0
 30
0.0
  9
$UCSXDIR
 10
1.0
 20
0.0
 30
0.0
  9
$UCSYDIR
 10
0.0
 20
1.0
 30
0.0
  9
$UCSORTHOREF
  2

  9
$UCSORTHOVIEW
 70
     0
  9
$UCSORGTOP
 10
0.0
 20
0.0
 30
0.0
  9
$UCSORGBOTTOM
 10
0.0
 20
0.0
 30
0.0
  9
$UCSORGLEFT
 10
0.0
 20
0.0
 30
0.0
  9
$UCSORGRIGHT
 10
0.0
 20
0.0
 30
0.0
  9
$UCSORGFRONT
 10
0.0
 20
0.0
 30
0.0
  9
$UCSORGBACK
 10
0.0
 20
0.0
 30
0.0
  9
$PUCSBASE
  2

  9
$PUCSNAME
  2

  9
$PUCSORG
 10
0.0
 20
0.0
 30
0.0
  9
$PUCSXDIR
 10
1.0
 20
0.0
 30
0.0
  9
$PUCSYDIR
 10
0.0
 20
1.0
 30
0.0
  9
$PUCSORTHOREF
  2

  9
$PUCSORTHOVIEW
 70
     0
  9
$PUCSORGTOP
 10
0.0
 20
0.0
 30
0.0
  9
$PUCSORGBOTTOM
 10
0.0
 20
0.0
 30
0.0
  9
$PUCSORGLEFT
 10
0.0
 20
0.0
 30
0.0
  9
$PUCSORGRIGHT
 10
0.0
 20
0.0
 30
0.0
  9
$PUCSORGFRONT
 10
0.0
 20
0.0
 30
0.0
  9
$PUCSORGBACK
 10
0.0
 20
0.0
 30
0.0
  9
$USERI1
 70
     0
  9
$USERI2
 70
     0
  9
$USERI3
 70
     0
  9
$USERI4
 70
     0
  9
$USERI5
 70
     0
  9
$USERR1
 40
0.0
  9
$USERR2
 40
0.0
  9
$USERR3
 40
0.0
  9
$USERR4
 40
0.0
  9
$USERR5
 40
0.0
  9
$WORLDVIEW
 70
     1
  9
$SHADEDGE
 70
     3
  9
$SHADEDIF
 70
    70
  9
$TILEMODE
 70
     1
  9
$MAXACTVP
 70
    64
  9
$PINSBASE
 10
0.0
 20
0.0
 30
0.0
  9
$PLIMCHECK
 70
     0
  9
$PEXTMIN
 10
1.0000000000E+20
 20
1.0000000000E+20
 30
1.0000000000E+20
  9
$PEXTMAX
 10
-1.0000000000E+20
 20
-1.0000000000E+20
 30
-1.0000000000E+20
  9
$PLIMMIN
 10
0.0
 20
0.0
  9
$PLIMMAX
 10
12.0
 20
9.0
  9
$UNITMODE
 70
     0
  9
$VISRETAIN
 70
     1
  9
$PLINEGEN
 70
     0
  9
$PSLTSCALE
 70
     1
  9
$TREEDEPTH
 70
  3020
  9
$CMLSTYLE
  2
Standard
  9
$CMLJUST
 70
     0
  9
$CMLSCALE
 40
1.0
  9
$PROXYGRAPHICS
 70
     1
  9
$MEASUREMENT
 70
     0
  9
$CELWEIGHT
370
    -1
  9
$ENDCAPS
280
     0
  9
$JOINSTYLE
280
     0
  9
$LWDISPLAY
290
     1
  9
$INSUNITS
 70
     1
  9
$HYPERLINKBASE
  1

  9
$STYLESHEET
  1

  9
$XEDIT
290
     1
  9
$CEPSNTYPE
380
     0
  9
$PSTYLEMODE
290
     1
  9
$FINGERPRINTGUID
  2
{DAF37CA6-3637-4A0C-86FC-63BE985AC1CB}
  9
$VERSIONGUID
  2
{FAEB1C32-E019-11D5-929B-00C0DF256EC4}
  9
$EXTNAMES
290
     1
  9
$PSVPSCALE
 40
0.0
  9
$OLESTARTUP
290
     0
  0
ENDSEC
  0
SECTION
  2
CLASSES
  0
CLASS
  1
ACDBDICTIONARYWDFLT
  2
AcDbDictionaryWithDefault
  3
ObjectDBX Classes
 90
        0
280
     0
281
     0
  0
CLASS
  1
VISUALSTYLE
  2
AcDbVisualStyle
  3
ObjectDBX Classes
 90
     4095
280
     0
281
     0
  0
CLASS
  1
MATERIAL
  2
AcDbMaterial
  3
ObjectDBX Classes
 90
     1153
280
     0
281
     0
  0
CLASS
  1
ACDBPLACEHOLDER
  2
AcDbPlaceHolder
  3
ObjectDBX Classes
 90
        0
280
     0
281
     0
  0
CLASS
  1
LAYOUT
  2
AcDbLayout
  3
ObjectDBX Classes
 90
        0
280
     0
281
     0
  0
ENDSEC
  0
SECTION
  2
TABLES
  0
TABLE
  2
VPORT
  5
8
330
0
100
AcDbSymbolTable
 70
     1
  0
VPORT
  5
29
330
8
100
AcDbSymbolTableRecord
100
AcDbViewportTableRecord
  2
*Active
 70
     0
 10
0.0
 20
0.0
 11
1.0
 21
1.0
 12
5.5
 22
4.25
 13
0.0
 23
0.0
 14
0.5
 24
0.5
 15
0.5
 25
0.5
 16
0.0
 26
0.0
 36
1.0
 17
0.0
 27
0.0
 37
0.0
 40
8.5
 41
1.2941176471
 42
50.0
 43
0.0
 44
0.0
 50
0.0
 51
0.0
 71
     0
 72
  2000
 73
     1
 74
     3
 75
     0
 76
     0
 77
     0
 78
     0
281
     0
 65
     1
110
0.0
120
0.0
130
0.0
111
1.0
121
0.0
131
0.0
112
0.0
122
1.0
132
0.0
 79
     0
146
0.0
  0
ENDTAB
  0
TABLE
  2
LTYPE
  5
5
330
0
100
AcDbSymbolTable
 70
     6
  0
LTYPE
  5
14
330
5
100
AcDbSymbolTableRecord
100
AcDbLinetypeTableRecord
  2
ByBlock
 70
     0
  3

 72
    65
 73
     0
 40
0.0
  0
LTYPE
  5
15
330
5
100
AcDbSymbolTableRecord
100
AcDbLinetypeTableRecord
  2
ByLayer
 70
     0
  3

 72
    65
 73
     0
 40
0.0
  0
LTYPE
  5
16
330
5
100
AcDbSymbolTableRecord
100
AcDbLinetypeTableRecord
  2
Continuous
 70
     0
  3
Solid line
 72
    65
 73
     0
 40
0.0
  0
LTYPE
  5
3F
330
5
100
AcDbSymbolTableRecord
100
AcDbLinetypeTableRecord
  2
HIDDEN
 70
     0
  3
Hidden __ __ __ __ __ __ __ __ __ __ __ __ __ __
 72
    65
 73
     2
 40
0.075
 49
0.05
 74
     0
 49
-0.025
 74
     0
  0
LTYPE
  5
40
330
5
100
AcDbSymbolTableRecord
100
AcDbLinetypeTableRecord
  2
PHANTOM
 70
     0
  3
Phantom ______  __  __  ______  __  __  ______
 72
    65
 73
     6
 40
0.5
 49
0.25
 74
     0
 49
-0.05
 74
     0
 49
0.05
 74
     0
 49
-0.05
 74
     0
 49
0.05
 74
     0
 49
-0.05
 74
     0
  0
LTYPE
  5
41
330
5
100
AcDbSymbolTableRecord
100
AcDbLinetypeTableRecord
  2
CENTER
 70
     0
  3
Center ____ _ ____ _ ____ _ ____ _ ____ _ ____
 72
    65
 73
     4
 40
0.4
 49
0.25
 74
     0
 49
-0.05
 74
     0
 49
0.05
 74
     0
 49
-0.05
 74
     0
  0
LTYPE
  5
42
330
5
100
AcDbSymbolTableRecord
100
AcDbLinetypeTableRecord
  2
CENTERX2
 70
     0
  3
Center (2x) ________  __  ________  __  _____
 72
    65
 73
     4
 40
0.8
 49
0.5
 74
     0
 49
-0.1
 74
     0
 49
0.1
 74
     0
 49
-0.1
 74
     0
  0
LTYPE
  5
43
330
5
100
AcDbSymbolTableRecord
100
AcDbLinetypeTableRecord
  2
DOT2
 70
     0
  3
Dot (.5x) ........................................
 72
    65
 73
     2
 40
0.025
 49
0.0
 74
     0
 49
-0.025
 74
     0
  0
ENDTAB
  0
TABLE
  2
LAYER
  5
2
330
0
100
AcDbSymbolTable
 70
    16
  0
LAYER
  5
10
330
2
100
AcDbSymbolTableRecord
100
AcDbLayerTableRecord
  2
0
 70
     0
 62
     7
  6
Continuous
370
    -3
390
F
  0
LAYER
  5
44
330
2
100
AcDbSymbolTableRecord
100
AcDbLayerTableRecord
  2
FORMAT
 70
     0
 62
     7
  6
Continuous
370
    -3
390
F
  0
LAYER
  5
45
330
2
100
AcDbSymbolTableRecord
100
AcDbLayerTableRecord
  2
SLD-0
 70
     0
 62
   179
  6
Continuous
370
    15
390
F
  0
LAYER
  5
46
330
2
100
AcDbSymbolTableRecord
100
AcDbLayerTableRecord
  2
FRAME__200
 70
     0
 62
     8
  6
Continuous
370
    -3
390
F
  0
LAYER
  5
47
330
2
100
AcDbSymbolTableRecord
100
AcDbLayerTableRecord
  2
FRAME__070
 70
     0
 62
     5
  6
Continuous
370
    -3
390
F
  0
LAYER
  5
48
330
2
100
AcDbSymbolTableRecord
100
AcDbLayerTableRecord
  2
FRAME__050
 70
     0
 62
     6
  6
Continuous
370
    -3
390
F
  0
LAYER
  5
49
330
2
100
AcDbSymbolTableRecord
100
AcDbLayerTableRecord
  2
FRAME__025
 70
     0
 62
   179
  6
Continuous
370
    -3
390
F
  0
LAYER
  5
4A
330
2
100
AcDbSymbolTableRecord
100
AcDbLayerTableRecord
  2
A_BORDER
 70
     0
 62
   179
  6
Continuous
370
    -3
390
F
  0
LAYER
  5
4B
330
2
100
AcDbSymbolTableRecord
100
AcDbLayerTableRecord
  2
A_OBJECT
 70
     0
 62
   179
  6
Continuous
370
    40
390
F
  0
LAYER
  5
4C
330
2
100
AcDbSymbolTableRecord
100
AcDbLayerTableRecord
  2
A_DIMENSION
 70
     0
 62
     1
  6
Continuous
370
    -3
390
F
  0
LAYER
  5
4D
330
2
100
AcDbSymbolTableRecord
100
AcDbLayerTableRecord
  2
RAHMEN07
 70
     0
 62
     5
  6
Continuous
370
    -3
390
F
  0
LAYER
  5
4E
330
2
100
AcDbSymbolTableRecord
100
AcDbLayerTableRecord
  2
RAHMEN025
 70
     0
 62
   179
  6
Continuous
370
    -3
390
F
  0
LAYER
  5
4F
330
2
100
AcDbSymbolTableRecord
100
AcDbLayerTableRecord
  2
RAHMEN05
 70
     0
 62
     6
  6
Continuous
370
    -3
390
F
  0
LAYER
  5
50
330
2
100
AcDbSymbolTableRecord
100
AcDbLayerTableRecord
  2
SLD-DEFPOINTS
 70
     0
 62
   179
  6
Continuous
370
    -3
390
F
  0
LAYER
  5
51
330
2
100
AcDbSymbolTableRecord
100
AcDbLayerTableRecord
  2
OBJECT
 70
     0
 62
   179
  6
Continuous
370
    40
390
F
  0
LAYER
  5
52
330
2
100
AcDbSymbolTableRecord
100
AcDbLayerTableRecord
  2
DIMENSION
 70
     0
 62
     1
  6
Continuous
370
    -3
390
F
  0
ENDTAB
  0
TABLE
  2
STYLE
  5
3
330
0
100
AcDbSymbolTable
 70
     2
  0
STYLE
  5
11
330
3
100
AcDbSymbolTableRecord
100
AcDbTextStyleTableRecord
  2
Standard
 70
     0
 40
0.0
 41
1.0
 50
0.0
 71
     0
 42
0.1944444444
  3
txt
  4

  0
STYLE
  5
192
330
3
100
AcDbSymbolTableRecord
100
AcDbTextStyleTableRecord
  2
SLDTEXTSTYLE0
 70
     0
 40
0.0
 41
0.75
 50
0.0
 71
     0
 42
0.2
  3
TXT
  4

  0
ENDTAB
  0
TABLE
  2
VIEW
  5
6
330
0
100
AcDbSymbolTable
 70
     0
  0
ENDTAB
  0
TABLE
  2
UCS
  5
7
330
0
100
AcDbSymbolTable
 70
     0
  0
ENDTAB
  0
TABLE
  2
APPID
  5
9
330
0
100
AcDbSymbolTable
 70
     1
  0
APPID
  5
12
330
9
100
AcDbSymbolTableRecord
100
AcDbRegAppTableRecord
  2
ACAD
 70
     0
  0
ENDTAB
  0
TABLE
  2
DIMSTYLE
  5
A
330
0
100
AcDbSymbolTable
 70
     6
100
AcDbDimStyleTable
  0
DIMSTYLE
105
27
330
A
100
AcDbSymbolTableRecord
100
AcDbDimStyleTableRecord
  2
Standard
 70
     0
178
     0
340
11
  0
DIMSTYLE
105
193
102
{ACAD_REACTORS
330
191
330
1AE
330
1BC
330
1CA
330
1D8
330
1E6
330
44C
330
458
330
464
102
}
330
A
100
AcDbSymbolTableRecord
100
AcDbDimStyleTableRecord
  2
SLDDIMSTYLE0
 70
     0
 41
0.12
 44
0.0
 45
0.000000001
 73
     0
 74
     0
 77
     1
 78
    12
 79
     3
140
0.0833333333
147
0.0208333333
172
     1
173
     1
178
     0
271
     3
272
     2
276
     2
284
    12
289
     0
340
192
  0
DIMSTYLE
105
1A2
102
{ACAD_REACTORS
330
1A1
102
}
330
A
100
AcDbSymbolTableRecord
100
AcDbDimStyleTableRecord
  2
SLDDIMSTYLE1
 70
     0
 41
0.12
 44
0.0
 45
0.000000001
 73
     0
 74
     0
 77
     1
 78
     4
 79
     1
140
0.0833333333
147
0.0208333333
173
     1
178
     0
271
     3
272
     2
276
     2
284
    12
340
192
  0
DIMSTYLE
105
311
102
{ACAD_REACTORS
330
310
330
492
102
}
330
A
100
AcDbSymbolTableRecord
100
AcDbDimStyleTableRecord
  2
SLDDIMSTYLE2
 70
     0
 41
0.12
 44
0.0
 45
0.000000001
 73
     0
 74
     0
 77
     1
 78
     4
 79
     1
140
0.0833333333
147
0.0208333333
172
     1
173
     1
178
     0
271
     3
272
     2
276
     2
284
    12
289
     0
340
192
  0
DIMSTYLE
105
471
102
{ACAD_REACTORS
330
470
102
}
330
A
100
AcDbSymbolTableRecord
100
AcDbDimStyleTableRecord
  2
SLDDIMSTYLE3
 70
     0
 41
0.12
 44
0.0
 45
0.000000001
 73
     0
 74
     0
 77
     1
 78
    12
 79
     3
140
0.0833333333
147
0.0208333333
173
     1
178
     0
271
     3
272
     2
276
     2
284
    12
340
192
  0
DIMSTYLE
105
47C
102
{ACAD_REACTORS
330
47B
330
487
102
}
330
A
100
AcDbSymbolTableRecord
100
AcDbDimStyleTableRecord
  2
SLDDIMSTYLE4
 70
     0
 41
0.12
 44
0.0
 45
0.000000001
 73
     0
 74
     0
 77
     1
 78
    12
 79
     3
140
0.0833333333
141
0.0
147
0.0208333333
173
     1
178
     0
271
     3
272
     2
276
     2
284
    12
340
192
  0
ENDTAB
  0
TABLE
  2
BLOCK_RECORD
  5
1
330
0
100
AcDbSymbolTable
 70
    16
  0
BLOCK_RECORD
  5
1F
330
1
100
AcDbSymbolTableRecord
100
AcDbBlockTableRecord
  2
*Model_Space
340
22
  0
BLOCK_RECORD
  5
1B
330
1
100
AcDbSymbolTableRecord
100
AcDbBlockTableRecord
  2
*Paper_Space
340
1E
  0
BLOCK_RECORD
  5
23
330
1
100
AcDbSymbolTableRecord
100
AcDbBlockTableRecord
  2
*Paper_Space0
340
26
  0
BLOCK_RECORD
  5
194
330
1
100
AcDbSymbolTableRecord
100
AcDbBlockTableRecord
  2
_D
340
0
  0
BLOCK_RECORD
  5
1A3
330
1
100
AcDbSymbolTableRecord
100
AcDbBlockTableRecord
  2
_D_1
340
0
  0
BLOCK_RECORD
  5
1AF
330
1
100
AcDbSymbolTableRecord
100
AcDbBlockTableRecord
  2
_D_2
340
0
  0
BLOCK_RECORD
  5
1BD
330
1
100
AcDbSymbolTableRecord
100
AcDbBlockTableRecord
  2
_D_3
340
0
  0
BLOCK_RECORD
  5
1CB
330
1
100
AcDbSymbolTableRecord
100
AcDbBlockTableRecord
  2
_D_4
340
0
  0
BLOCK_RECORD
  5
1D9
330
1
100
AcDbSymbolTableRecord
100
AcDbBlockTableRecord
  2
_D_5
340
0
  0
BLOCK_RECORD
  5
1E7
330
1
100
AcDbSymbolTableRecord
100
AcDbBlockTableRecord
  2
_D_6
340
0
  0
BLOCK_RECORD
  5
312
330
1
100
AcDbSymbolTableRecord
100
AcDbBlockTableRecord
  2
_D_7
340
0
  0
BLOCK_RECORD
  5
44D
330
1
100
AcDbSymbolTableRecord
100
AcDbBlockTableRecord
  2
_D_8
340
0
  0
BLOCK_RECORD
  5
459
330
1
100
AcDbSymbolTableRecord
100
AcDbBlockTableRecord
  2
_D_9
340
0
  0
BLOCK_RECORD
  5
465
330
1
100
AcDbSymbolTableRecord
100
AcDbBlockTableRecord
  2
_D_10
340
0
  0
BLOCK_RECORD
  5
472
330
1
100
AcDbSymbolTableRecord
100
AcDbBlockTableRecord
  2
_D_11
340
0
  0
BLOCK_RECORD
  5
47D
330
1
100
AcDbSymbolTableRecord
100
AcDbBlockTableRecord
  2
_D_12
340
0
  0
BLOCK_RECORD
  5
488
330
1
100
AcDbSymbolTableRecord
100
AcDbBlockTableRecord
  2
_D_13
340
0
  0
BLOCK_RECORD
  5
493
330
1
100
AcDbSymbolTableRecord
100
AcDbBlockTableRecord
  2
_D_14
340
0
  0
ENDTAB
  0
ENDSEC
  0
SECTION
  2
BLOCKS
  0
BLOCK
  5
20
330
1F
100
AcDbEntity
  8
0
100
AcDbBlockBegin
  2
*Model_Space
 70
     0
 10
0.0
 20
0.0
 30
0.0
  3
*Model_Space
  1

  0
ENDBLK
  5
21
330
1F
100
AcDbEntity
  8
0
100
AcDbBlockEnd
  0
BLOCK
  5
1C
330
1B
100
AcDbEntity
 67
     1
  8
0
100
AcDbBlockBegin
  2
*Paper_Space
 70
     0
 10
0.0
 20
0.0
 30
0.0
  3
*Paper_Space
  1

  0
ENDBLK
  5
1D
330
1B
100
AcDbEntity
 67
     1
  8
0
100
AcDbBlockEnd
  0
BLOCK
  5
24
330
23
100
AcDbEntity
  8
0
100
AcDbBlockBegin
  2
*Paper_Space0
 70
     0
 10
0.0
 20
0.0
 30
0.0
  3
*Paper_Space0
  1

  0
ENDBLK
  5
25
330
23
100
AcDbEntity
  8
0
100
AcDbBlockEnd
  0
BLOCK
  5
195
330
194
100
AcDbEntity
  8
0
100
AcDbBlockBegin
  2
_D
 70
     0
 10
0.0
 20
0.0
 30
0.0
  3
_D
  1

  0
ARC
  5
197
330
194
100
AcDbEntity
  8
SLD-0
100
AcDbCircle
 10
2.8040123135
 20
5.540806633
 30
0.0
 40
0.1480183544218468
100
AcDbArc
 50
153.4349488229
 51
206.5650511771
  0
ARC
  5
198
330
194
100
AcDbEntity
  8
SLD-0
100
AcDbCircle
 10
2.9411707295
 20
5.540806633
 30
0.0
 40
0.1480183544218472
100
AcDbArc
 50
333.4349488229
 51
26.5650511771
  0
SOLID
  5
199
330
194
100
AcDbEntity
  8
SLD-0
100
AcDbTrace
 10
3.3002605937
 20
5.4746108125
 30
0.0
 11
3.4202605937
 21
5.4396108125
 31
0.0
 12
3.4202605937
 22
5.5096108125
 32
0.0
 13
3.4202605937
 23
5.5096108125
 33
0.0
  0
SOLID
  5
19A
330
194
100
AcDbEntity
  8
SLD-0
100
AcDbTrace
 10
2.4342605937
 20
5.4746108125
 30
0.0
 11
2.3142605937
 21
5.5096108125
 31
0.0
 12
2.3142605937
 22
5.4396108125
 32
0.0
 13
2.3142605937
 23
5.4396108125
 33
0.0
  0
LINE
  5
19B
330
194
100
AcDbEntity
  8
SLD-0
100
AcDbLine
 10
3.3002605937
 20
5.0149331549
 30
0.0
 11
3.3002605937
 21
5.5136108125
 31
0.0
  0
LINE
  5
19C
330
194
100
AcDbEntity
  8
SLD-0
100
AcDbLine
 10
2.4342605937
 20
5.0149331549
 30
0.0
 11
2.4342605937
 21
5.5136108125
 31
0.0
  0
LINE
  5
19D
330
194
100
AcDbEntity
  8
SLD-0
100
AcDbLine
 10
3.3002605937
 20
5.4746108125
 30
0.0
 11
3.5402605937
 21
5.4746108125
 31
0.0
  0
LINE
  5
19E
330
194
100
AcDbEntity
  8
SLD-0
100
AcDbLine
 10
3.3002605937
 20
5.4746108125
 30
0.0
 11
2.4342605937
 21
5.4746108125
 31
0.0
  0
LINE
  5
19F
330
194
100
AcDbEntity
  8
SLD-0
100
AcDbLine
 10
2.4342605937
 20
5.4746108125
 30
0.0
 11
2.1942605937
 21
5.4746108125
 31
0.0
  0
MTEXT
  5
1A0
330
194
100
AcDbEntity
  8
SLD-0
100
AcDbMText
 10
2.7341206726
 20
5.5820331264
 30
0.0
 40
0.0833333333
 41
0.0
 71
     1
 72
     1
  1
0.866
  7
SLDTEXTSTYLE0
 73
     1
 44
1.0
  0
ENDBLK
  5
196
330
194
100
AcDbEntity
  8
0
100
AcDbBlockEnd
  0
BLOCK
  5
1A4
330
1A3
100
AcDbEntity
  8
0
100
AcDbBlockBegin
  2
_D_1
 70
     0
 10
0.0
 20
0.0
 30
0.0
  3
_D_1
  1

  0
ARC
  5
1A6
330
1A3
100
AcDbEntity
  8
SLD-0
100
AcDbCircle
 10
1.7381435134
 20
4.2627656338
 30
0.0
 40
0.1480183544218472
100
AcDbArc
 50
243.4349488229
 51
296.5650511771
  0
ARC
  5
1A7
330
1A3
100
AcDbEntity
  8
SLD-0
100
AcDbCircle
 10
1.7381435134
 20
4.3999240498
 30
0.0
 40
0.1480183544218472
100
AcDbArc
 50
63.4349488229
 51
116.5650511771
  0
SOLID
  5
1A8
330
1A3
100
AcDbEntity
  8
SLD-0
100
AcDbTrace
 10
1.8043393338
 20
3.6459331549
 30
0.0
 11
1.8393393338
 21
3.7659331549
 31
0.0
 12
1.7693393338
 22
3.7659331549
 32
0.0
 13
1.7693393338
 23
3.7659331549
 33
0.0
  0
SOLID
  5
1A9
330
1A3
100
AcDbEntity
  8
SLD-0
100
AcDbTrace
 10
1.8043393338
 20
4.9759331549
 30
0.0
 11
1.7693393338
 21
4.8559331549
 31
0.0
 12
1.8393393338
 22
4.8559331549
 32
0.0
 13
1.8393393338
 23
4.8559331549
 33
0.0
  0
LINE
  5
1AA
330
1A3
100
AcDbEntity
  8
SLD-0
100
AcDbLine
 10
2.3952605937
 20
3.6459331549
 30
0.0
 11
1.7653393338
 21
3.6459331549
 31
0.0
  0
LINE
  5
1AB
330
1A3
100
AcDbEntity
  8
SLD-0
100
AcDbLine
 10
2.3952605937
 20
4.9759331549
 30
0.0
 11
1.7653393338
 21
4.9759331549
 31
0.0
  0
LINE
  5
1AC
330
1A3
100
AcDbEntity
  8
SLD-0
100
AcDbLine
 10
1.8043393338
 20
3.6459331549
 30
0.0
 11
1.8043393338
 21
4.9759331549
 31
0.0
  0
MTEXT
  5
1AD
330
1A3
100
AcDbEntity
  8
SLD-0
100
AcDbMText
 10
1.6969170199
 20
4.1928739929
 30
0.0
 40
0.0833333333
 41
0.0
 71
     1
 72
     1
  1
1.330
  7
SLDTEXTSTYLE0
 11
6.123233995736766E-17
 21
1.0
 31
0.0
 73
     1
 44
1.0
  0
ENDBLK
  5
1A5
330
1A3
100
AcDbEntity
  8
0
100
AcDbBlockEnd
  0
BLOCK
  5
1B0
330
1AF
100
AcDbEntity
  8
0
100
AcDbBlockBegin
  2
_D_2
 70
     0
 10
0.0
 20
0.0
 30
0.0
  3
_D_2
  1

  0
ARC
  5
1B2
330
1AF
100
AcDbEntity
  8
SLD-0
100
AcDbCircle
 10
2.8040123135
 20
5.242583756
 30
0.0
 40
0.1480183544218468
100
AcDbArc
 50
153.4349488229
 51
206.5650511771
  0
ARC
  5
1B3
330
1AF
100
AcDbEntity
  8
SLD-0
100
AcDbCircle
 10
2.9411707295
 20
5.242583756
 30
0.0
 40
0.1480183544218472
100
AcDbArc
 50
333.4349488229
 51
26.5650511771
  0
SOLID
  5
1B4
330
1AF
100
AcDbEntity
  8
SLD-0
100
AcDbTrace
 10
3.2727105937
 20
5.1763879355
 30
0.0
 11
3.1527105937
 21
5.2113879355
 31
0.0
 12
3.1527105937
 22
5.1413879355
 32
0.0
 13
3.1527105937
 23
5.1413879355
 33
0.0
  0
SOLID
  5
1B5
330
1AF
100
AcDbEntity
  8
SLD-0
100
AcDbTrace
 10
3.3002605937
 20
5.1763879355
 30
0.0
 11
3.4202605937
 21
5.1413879355
 31
0.0
 12
3.4202605937
 22
5.2113879355
 32
0.0
 13
3.4202605937
 23
5.2113879355
 33
0.0
  0
LINE
  5
1B6
330
1AF
100
AcDbEntity
  8
SLD-0
100
AcDbLine
 10
3.2727105937
 20
4.9756831549
 30
0.0
 11
3.2727105937
 21
5.2153879355
 31
0.0
  0
LINE
  5
1B7
330
1AF
100
AcDbEntity
  8
SLD-0
100
AcDbLine
 10
3.3002605937
 20
5.0149331549
 30
0.0
 11
3.3002605937
 21
5.2153879355
 31
0.0
  0
LINE
  5
1B8
330
1AF
100
AcDbEntity
  8
SLD-0
100
AcDbLine
 10
3.2727105937
 20
5.1763879355
 30
0.0
 11
2.6091206726
 21
5.1763879355
 31
0.0
  0
LINE
  5
1B9
330
1AF
100
AcDbEntity
  8
SLD-0
100
AcDbLine
 10
3.2727105937
 20
5.1763879355
 30
0.0
 11
3.3002605937
 21
5.1763879355
 31
0.0
  0
LINE
  5
1BA
330
1AF
100
AcDbEntity
  8
SLD-0
100
AcDbLine
 10
3.3002605937
 20
5.1763879355
 30
0.0
 11
3.5402605937
 21
5.1763879355
 31
0.0
  0
MTEXT
  5
1BB
330
1AF
100
AcDbEntity
  8
SLD-0
100
AcDbMText
 10
2.7341206726
 20
5.2838102494
 30
0.0
 40
0.0833333333
 41
0.0
 71
     1
 72
     1
  1
0.028
  7
SLDTEXTSTYLE0
 73
     1
 44
1.0
  0
ENDBLK
  5
1B1
330
1AF
100
AcDbEntity
  8
0
100
AcDbBlockEnd
  0
BLOCK
  5
1BE
330
1BD
100
AcDbEntity
  8
0
100
AcDbBlockBegin
  2
_D_3
 70
     0
 10
0.0
 20
0.0
 30
0.0
  3
_D_3
  1

  0
ARC
  5
1C0
330
1BD
100
AcDbEntity
  8
SLD-0
100
AcDbCircle
 10
2.674184822
 20
3.318328188
 30
0.0
 40
0.1480183544218476
100
AcDbArc
 50
153.4349488229
 51
206.5650511771
  0
ARC
  5
1C1
330
1BD
100
AcDbEntity
  8
SLD-0
100
AcDbCircle
 10
2.811343238
 20
3.318328188
 30
0.0
 40
0.1480183544218468
100
AcDbArc
 50
333.4349488229
 51
26.5650511771
  0
SOLID
  5
1C2
330
1BD
100
AcDbEntity
  8
SLD-0
100
AcDbTrace
 10
3.3002605937
 20
3.2521323675
 30
0.0
 11
3.4202605937
 21
3.2171323675
 31
0.0
 12
3.4202605937
 22
3.2871323675
 32
0.0
 13
3.4202605937
 23
3.2871323675
 33
0.0
  0
SOLID
  5
1C3
330
1BD
100
AcDbEntity
  8
SLD-0
100
AcDbTrace
 10
3.1429605937
 20
3.2521323675
 30
0.0
 11
3.0229605937
 21
3.2871323675
 31
0.0
 12
3.0229605937
 22
3.2171323675
 32
0.0
 13
3.0229605937
 23
3.2171323675
 33
0.0
  0
LINE
  5
1C4
330
1BD
100
AcDbEntity
  8
SLD-0
100
AcDbLine
 10
3.3002605937
 20
3.6069331549
 30
0.0
 11
3.3002605937
 21
3.2131323675
 31
0.0
  0
LINE
  5
1C5
330
1BD
100
AcDbEntity
  8
SLD-0
100
AcDbLine
 10
3.1429605937
 20
3.6068331549
 30
0.0
 11
3.1429605937
 21
3.2131323675
 31
0.0
  0
LINE
  5
1C6
330
1BD
100
AcDbEntity
  8
SLD-0
100
AcDbLine
 10
3.3002605937
 20
3.2521323675
 30
0.0
 11
3.5402605937
 21
3.2521323675
 31
0.0
  0
LINE
  5
1C7
330
1BD
100
AcDbEntity
  8
SLD-0
100
AcDbLine
 10
3.3002605937
 20
3.2521323675
 30
0.0
 11
3.1429605937
 21
3.2521323675
 31
0.0
  0
LINE
  5
1C8
330
1BD
100
AcDbEntity
  8
SLD-0
100
AcDbLine
 10
3.1429605937
 20
3.2521323675
 30
0.0
 11
2.4792931811
 21
3.2521323675
 31
0.0
  0
MTEXT
  5
1C9
330
1BD
100
AcDbEntity
  8
SLD-0
100
AcDbMText
 10
2.6042931811
 20
3.3595546815
 30
0.0
 40
0.0833333333
 41
0.0
 71
     1
 72
     1
  1
0.157
  7
SLDTEXTSTYLE0
 73
     1
 44
1.0
  0
ENDBLK
  5
1BF
330
1BD
100
AcDbEntity
  8
0
100
AcDbBlockEnd
  0
BLOCK
  5
1CC
330
1CB
100
AcDbEntity
  8
0
100
AcDbBlockBegin
  2
_D_4
 70
     0
 10
0.0
 20
0.0
 30
0.0
  3
_D_4
  1

  0
ARC
  5
1CE
330
1CB
100
AcDbEntity
  8
SLD-0
100
AcDbCircle
 10
2.0220087004
 20
4.1411119799
 30
0.0
 40
0.1480183544218472
100
AcDbArc
 50
243.4349488229
 51
296.5650511771
  0
ARC
  5
1CF
330
1CB
100
AcDbEntity
  8
SLD-0
100
AcDbCircle
 10
2.0220087004
 20
4.2782703959
 30
0.0
 40
0.1480183544218472
100
AcDbArc
 50
63.4349488229
 51
116.5650511771
  0
SOLID
  5
1D0
330
1CB
100
AcDbEntity
  8
SLD-0
100
AcDbTrace
 10
2.0882045208
 20
3.6459331549
 30
0.0
 11
2.0532045208
 21
3.5259331549
 31
0.0
 12
2.1232045208
 22
3.5259331549
 32
0.0
 13
2.1232045208
 23
3.5259331549
 33
0.0
  0
SOLID
  5
1D1
330
1CB
100
AcDbEntity
  8
SLD-0
100
AcDbTrace
 10
2.0882045208
 20
3.7279331549
 30
0.0
 11
2.1232045208
 21
3.8479331549
 31
0.0
 12
2.0532045208
 22
3.8479331549
 32
0.0
 13
2.0532045208
 23
3.8479331549
 33
0.0
  0
LINE
  5
1D2
330
1CB
100
AcDbEntity
  8
SLD-0
100
AcDbLine
 10
2.3952605937
 20
3.6459331549
 30
0.0
 11
2.0492045208
 21
3.6459331549
 31
0.0
  0
LINE
  5
1D3
330
1CB
100
AcDbEntity
  8
SLD-0
100
AcDbLine
 10
2.3952605937
 20
3.7279331549
 30
0.0
 11
2.0492045208
 21
3.7279331549
 31
0.0
  0
LINE
  5
1D4
330
1CB
100
AcDbEntity
  8
SLD-0
100
AcDbLine
 10
2.0882045208
 20
3.6459331549
 30
0.0
 11
2.0882045208
 21
3.4059331549
 31
0.0
  0
LINE
  5
1D5
330
1CB
100
AcDbEntity
  8
SLD-0
100
AcDbLine
 10
2.0882045208
 20
3.6459331549
 30
0.0
 11
2.0882045208
 21
3.7279331549
 31
0.0
  0
LINE
  5
1D6
330
1CB
100
AcDbEntity
  8
SLD-0
100
AcDbLine
 10
2.0882045208
 20
3.7279331549
 30
0.0
 11
2.0882045208
 21
4.4731620369
 31
0.0
  0
MTEXT
  5
1D7
330
1CB
100
AcDbEntity
  8
SLD-0
100
AcDbMText
 10
1.9807822069
 20
4.071220339
 30
0.0
 40
0.0833333333
 41
0.0
 71
     1
 72
     1
  1
0.082
  7
SLDTEXTSTYLE0
 11
6.123233995736766E-17
 21
1.0
 31
0.0
 73
     1
 44
1.0
  0
ENDBLK
  5
1CD
330
1CB
100
AcDbEntity
  8
0
100
AcDbBlockEnd
  0
BLOCK
  5
1DA
330
1D9
100
AcDbEntity
  8
0
100
AcDbBlockBegin
  2
_D_5
 70
     0
 10
0.0
 20
0.0
 30
0.0
  3
_D_5
  1

  0
ARC
  5
1DC
330
1D9
100
AcDbEntity
  8
SLD-0
100
AcDbCircle
 10
3.864086033
 20
3.3863929378
 30
0.0
 40
0.1480183544218472
100
AcDbArc
 50
243.4349488229
 51
296.5650511771
  0
ARC
  5
1DD
330
1D9
100
AcDbEntity
  8
SLD-0
100
AcDbCircle
 10
3.864086033
 20
3.5235513538
 30
0.0
 40
0.1480183544218472
100
AcDbArc
 50
63.4349488229
 51
116.5650511771
  0
SOLID
  5
1DE
330
1D9
100
AcDbEntity
  8
SLD-0
100
AcDbTrace
 10
3.9302818535
 20
3.9917831549
 30
0.0
 11
3.9652818535
 21
4.1117831549
 31
0.0
 12
3.8952818535
 22
4.1117831549
 32
0.0
 13
3.8952818535
 23
4.1117831549
 33
0.0
  0
SOLID
  5
1DF
330
1D9
100
AcDbEntity
  8
SLD-0
100
AcDbTrace
 10
3.9302818535
 20
3.9366831549
 30
0.0
 11
3.8952818535
 21
3.8166831549
 31
0.0
 12
3.9652818535
 22
3.8166831549
 32
0.0
 13
3.9652818535
 23
3.8166831549
 33
0.0
  0
LINE
  5
1E0
330
1D9
100
AcDbEntity
  8
SLD-0
100
AcDbLine
 10
3.3392605937
 20
3.9917831549
 30
0.0
 11
3.9692818535
 21
3.9917831549
 31
0.0
  0
LINE
  5
1E1
330
1D9
100
AcDbEntity
  8
SLD-0
100
AcDbLine
 10
3.3392605937
 20
3.9366831549
 30
0.0
 11
3.9692818535
 21
3.9366831549
 31
0.0
  0
LINE
  5
1E2
330
1D9
100
AcDbEntity
  8
SLD-0
100
AcDbLine
 10
3.9302818535
 20
3.9917831549
 30
0.0
 11
3.9302818535
 21
4.2317831549
 31
0.0
  0
LINE
  5
1E3
330
1D9
100
AcDbEntity
  8
SLD-0
100
AcDbLine
 10
3.9302818535
 20
3.9917831549
 30
0.0
 11
3.9302818535
 21
3.9366831549
 31
0.0
  0
LINE
  5
1E4
330
1D9
100
AcDbEntity
  8
SLD-0
100
AcDbLine
 10
3.9302818535
 20
3.9366831549
 30
0.0
 11
3.9302818535
 21
3.1915012968
 31
0.0
  0
MTEXT
  5
1E5
330
1D9
100
AcDbEntity
  8
SLD-0
100
AcDbMText
 10
3.8228595396
 20
3.3165012968
 30
0.0
 40
0.0833333333
 41
0.0
 71
     1
 72
     1
  1
0.055
  7
SLDTEXTSTYLE0
 11
-7.044195017643634E-15
 21
1.0
 31
0.0
 73
     1
 44
1.0
  0
ENDBLK
  5
1DB
330
1D9
100
AcDbEntity
  8
0
100
AcDbBlockEnd
  0
BLOCK
  5
1E8
330
1E7
100
AcDbEntity
  8
0
100
AcDbBlockBegin
  2
_D_6
 70
     0
 10
0.0
 20
0.0
 30
0.0
  3
_D_6
  1

  0
ARC
  5
1EA
330
1E7
100
AcDbEntity
  8
SLD-0
100
AcDbCircle
 10
3.5661022164
 20
4.2628498009
 30
0.0
 40
0.1480183544218465
100
AcDbArc
 50
243.3621459621
 51
296.4922483162
  0
ARC
  5
1EB
330
1E7
100
AcDbEntity
  8
SLD-0
100
AcDbCircle
 10
3.5662764966
 20
4.4000081061
 30
0.0
 40
0.1480183544218474
100
AcDbArc
 50
63.362145962
 51
116.4922483162
  0
SOLID
  5
1EC
330
1E7
100
AcDbEntity
  8
SLD-0
100
AcDbTrace
 10
3.6328184989
 20
4.6724105901
 30
0.0
 11
3.5976660492
 21
4.5524551597
 31
0.0
 12
3.6676659927
 22
4.5523662143
 32
0.0
 13
3.6676659927
 23
4.5523662143
 33
0.0
  0
SOLID
  5
1ED
330
1E7
100
AcDbEntity
  8
SLD-0
100
AcDbTrace
 10
3.6329184989
 20
4.7511104489
 30
0.0
 11
3.6680709485
 21
4.8710658793
 31
0.0
 12
3.598071005
 22
4.8711548247
 32
0.0
 13
3.598071005
 23
4.8711548247
 33
0.0
  0
LINE
  5
1EE
330
1E7
100
AcDbEntity
  8
SLD-0
100
AcDbLine
 10
3.3392605622
 20
4.6727835996
 30
0.0
 11
3.6718184674
 21
4.6723610348
 31
0.0
  0
LINE
  5
1EF
330
1E7
100
AcDbEntity
  8
SLD-0
100
AcDbLine
 10
3.3393605622
 20
4.7514834584
 30
0.0
 11
3.6719184674
 21
4.7510608936
 31
0.0
  0
LINE
  5
1F0
330
1E7
100
AcDbEntity
  8
SLD-0
100
AcDbLine
 10
3.6328184989
 20
4.6724105901
 30
0.0
 11
3.6320503445
 21
4.0678742056
 31
0.0
  0
LINE
  5
1F1
330
1E7
100
AcDbEntity
  8
SLD-0
100
AcDbLine
 10
3.6328184989
 20
4.6724105901
 30
0.0
 11
3.6329184989
 21
4.7511104489
 31
0.0
  0
LINE
  5
1F2
330
1E7
100
AcDbEntity
  8
SLD-0
100
AcDbLine
 10
3.6329184989
 20
4.7511104489
 30
0.0
 11
3.6332234547
 21
4.9911102551
 31
0.0
  0
MTEXT
  5
1F3
330
1E7
100
AcDbEntity
  8
SLD-0
100
AcDbMText
 10
3.5247869485
 20
4.1930106007
 30
0.0
 40
0.0833333333
 41
0.0
 71
     1
 72
     1
  1
0.079
  7
SLDTEXTSTYLE0
 11
0.001270649285169876
 21
0.9999991927248713
 31
0.0
 73
     1
 44
1.0
  0
ENDBLK
  5
1E9
330
1E7
100
AcDbEntity
  8
0
100
AcDbBlockEnd
  0
BLOCK
  5
313
330
312
100
AcDbEntity
  8
0
100
AcDbBlockBegin
  2
_D_7
 70
     0
 10
0.0
 20
0.0
 30
0.0
  3
_D_7
  1

  0
ARC
  5
315
330
312
100
AcDbEntity
  8
SLD-0
100
AcDbCircle
 10
4.7531985671
 20
5.561802007
 30
0.0
 40
0.1480183544218476
100
AcDbArc
 50
153.4349488229
 51
206.5650511771
  0
ARC
  5
316
330
312
100
AcDbEntity
  8
SLD-0
100
AcDbCircle
 10
4.8903569831
 20
5.561802007
 30
0.0
 40
0.1480183544218476
100
AcDbArc
 50
333.4349488229
 51
26.5650511771
  0
SOLID
  5
317
330
312
100
AcDbEntity
  8
SLD-0
100
AcDbTrace
 10
5.2555486413
 20
5.4956061865
 30
0.0
 11
5.1355486413
 21
5.5306061865
 31
0.0
 12
5.1355486413
 22
5.4606061865
 32
0.0
 13
5.1355486413
 23
5.4606061865
 33
0.0
  0
SOLID
  5
318
330
312
100
AcDbEntity
  8
SLD-0
100
AcDbTrace
 10
5.2955486413
 20
5.4956061865
 30
0.0
 11
5.4155486413
 21
5.4606061865
 31
0.0
 12
5.4155486413
 22
5.5306061865
 32
0.0
 13
5.4155486413
 23
5.5306061865
 33
0.0
  0
LINE
  5
319
330
312
100
AcDbEntity
  8
SLD-0
100
AcDbLine
 10
5.2555486413
 20
5.0149331549
 30
0.0
 11
5.2555486413
 21
5.5346061865
 31
0.0
  0
LINE
  5
31A
330
312
100
AcDbEntity
  8
SLD-0
100
AcDbLine
 10
5.2955486413
 20
5.0149331549
 30
0.0
 11
5.2955486413
 21
5.5346061865
 31
0.0
  0
LINE
  5
31B
330
312
100
AcDbEntity
  8
SLD-0
100
AcDbLine
 10
5.2555486413
 20
5.4956061865
 30
0.0
 11
4.5583069261
 21
5.4956061865
 31
0.0
  0
LINE
  5
31C
330
312
100
AcDbEntity
  8
SLD-0
100
AcDbLine
 10
5.2555486413
 20
5.4956061865
 30
0.0
 11
5.2955486413
 21
5.4956061865
 31
0.0
  0
LINE
  5
31D
330
312
100
AcDbEntity
  8
SLD-0
100
AcDbLine
 10
5.2955486413
 20
5.4956061865
 30
0.0
 11
5.5355486413
 21
5.4956061865
 31
0.0
  0
MTEXT
  5
31E
330
312
100
AcDbEntity
  8
SLD-0
100
AcDbMText
 10
4.6833069261
 20
5.6030285005
 30
0.0
 40
0.0833333333
 41
0.0
 71
     1
 72
     1
  1
0.040
  7
SLDTEXTSTYLE0
 73
     1
 44
1.0
  0
ENDBLK
  5
314
330
312
100
AcDbEntity
  8
0
100
AcDbBlockEnd
  0
BLOCK
  5
44E
330
44D
100
AcDbEntity
  8
0
100
AcDbBlockBegin
  2
_D_8
 70
     0
 10
0.0
 20
0.0
 30
0.0
  3
_D_8
  1

  0
SOLID
  5
450
330
44D
100
AcDbEntity
  8
SLD-0
100
AcDbTrace
 10
7.7532343866
 20
3.3071886578
 30
0.0
 11
7.6332343866
 21
3.3421886578
 31
0.0
 12
7.6332343866
 22
3.2721886578
 32
0.0
 13
7.6332343866
 23
3.2721886578
 33
0.0
  0
SOLID
  5
451
330
44D
100
AcDbEntity
  8
SLD-0
100
AcDbTrace
 10
7.8167343866
 20
3.3071886578
 30
0.0
 11
7.9367343866
 21
3.2721886578
 31
0.0
 12
7.9367343866
 22
3.3421886578
 32
0.0
 13
7.9367343866
 23
3.3421886578
 33
0.0
  0
LINE
  5
452
330
44D
100
AcDbEntity
  8
SLD-0
100
AcDbLine
 10
7.7532343866
 20
3.5300157521
 30
0.0
 11
7.7532343866
 21
3.2681886578
 31
0.0
  0
LINE
  5
453
330
44D
100
AcDbEntity
  8
SLD-0
100
AcDbLine
 10
7.8167343866
 20
3.6069331549
 30
0.0
 11
7.8167343866
 21
3.2681886578
 31
0.0
  0
LINE
  5
454
330
44D
100
AcDbEntity
  8
SLD-0
100
AcDbLine
 10
7.7532343866
 20
3.3071886578
 30
0.0
 11
7.5132343866
 21
3.3071886578
 31
0.0
  0
LINE
  5
455
330
44D
100
AcDbEntity
  8
SLD-0
100
AcDbLine
 10
7.7532343866
 20
3.3071886578
 30
0.0
 11
7.8167343866
 21
3.3071886578
 31
0.0
  0
LINE
  5
456
330
44D
100
AcDbEntity
  8
SLD-0
100
AcDbLine
 10
7.8167343866
 20
3.3071886578
 30
0.0
 11
8.3862940141
 21
3.3071886578
 31
0.0
  0
MTEXT
  5
457
330
44D
100
AcDbEntity
  8
SLD-0
100
AcDbMText
 10
8.0468523162
 20
3.4146109717
 30
0.0
 40
0.0833333333
 41
0.0
 71
     1
 72
     1
  1
0.064
  7
SLDTEXTSTYLE0
 73
     1
 44
1.0
  0
ENDBLK
  5
44F
330
44D
100
AcDbEntity
  8
0
100
AcDbBlockEnd
  0
BLOCK
  5
45A
330
459
100
AcDbEntity
  8
0
100
AcDbBlockBegin
  2
_D_9
 70
     0
 10
0.0
 20
0.0
 30
0.0
  3
_D_9
  1

  0
SOLID
  5
45C
330
459
100
AcDbEntity
  8
SLD-0
100
AcDbTrace
 10
7.0744942291
 20
4.2473338598
 30
0.0
 11
7.1944942291
 21
4.2123338598
 31
0.0
 12
7.1944942291
 22
4.2823338598
 32
0.0
 13
7.1944942291
 23
4.2823338598
 33
0.0
  0
SOLID
  5
45D
330
459
100
AcDbEntity
  8
SLD-0
100
AcDbTrace
 10
6.9507343866
 20
4.2473338598
 30
0.0
 11
6.8307343866
 21
4.2823338598
 31
0.0
 12
6.8307343866
 22
4.2123338598
 32
0.0
 13
6.8307343866
 23
4.2123338598
 33
0.0
  0
LINE
  5
45E
330
459
100
AcDbEntity
  8
SLD-0
100
AcDbLine
 10
7.0744942291
 20
4.5162931777
 30
0.0
 11
7.0744942291
 21
4.2083338598
 31
0.0
  0
LINE
  5
45F
330
459
100
AcDbEntity
  8
SLD-0
100
AcDbLine
 10
6.9507343866
 20
4.4940331549
 30
0.0
 11
6.9507343866
 21
4.2083338598
 31
0.0
  0
LINE
  5
460
330
459
100
AcDbEntity
  8
SLD-0
100
AcDbLine
 10
7.0744942291
 20
4.2473338598
 30
0.0
 11
7.3144942291
 21
4.2473338598
 31
0.0
  0
LINE
  5
461
330
459
100
AcDbEntity
  8
SLD-0
100
AcDbLine
 10
7.0744942291
 20
4.2473338598
 30
0.0
 11
6.9507343866
 21
4.2473338598
 31
0.0
  0
LINE
  5
462
330
459
100
AcDbEntity
  8
SLD-0
100
AcDbLine
 10
6.9507343866
 20
4.2473338598
 30
0.0
 11
6.2819488647
 21
4.2473338598
 31
0.0
  0
MTEXT
  5
463
330
459
100
AcDbEntity
  8
SLD-0
100
AcDbMText
 10
6.3444488647
 20
4.3547561737
 30
0.0
 40
0.0833333333
 41
0.0
 71
     1
 72
     1
  1
0.124
  7
SLDTEXTSTYLE0
 73
     1
 44
1.0
  0
ENDBLK
  5
45B
330
459
100
AcDbEntity
  8
0
100
AcDbBlockEnd
  0
BLOCK
  5
466
330
465
100
AcDbEntity
  8
0
100
AcDbBlockBegin
  2
_D_10
 70
     0
 10
0.0
 20
0.0
 30
0.0
  3
_D_10
  1

  0
SOLID
  5
468
330
465
100
AcDbEntity
  8
SLD-0
100
AcDbTrace
 10
7.0744942291
 20
4.4188124685
 30
0.0
 11
6.9544942291
 21
4.4538124685
 31
0.0
 12
6.9544942291
 22
4.3838124685
 32
0.0
 13
6.9544942291
 23
4.3838124685
 33
0.0
  0
SOLID
  5
469
330
465
100
AcDbEntity
  8
SLD-0
100
AcDbTrace
 10
7.1532343866
 20
4.4188124685
 30
0.0
 11
7.2732343866
 21
4.3838124685
 31
0.0
 12
7.2732343866
 22
4.4538124685
 32
0.0
 13
7.2732343866
 23
4.4538124685
 33
0.0
  0
LINE
  5
46A
330
465
100
AcDbEntity
  8
SLD-0
100
AcDbLine
 10
7.0744942291
 20
4.5162931777
 30
0.0
 11
7.0744942291
 21
4.3798124685
 31
0.0
  0
LINE
  5
46B
330
465
100
AcDbEntity
  8
SLD-0
100
AcDbLine
 10
7.1532343866
 20
4.5162931777
 30
0.0
 11
7.1532343866
 21
4.3798124685
 31
0.0
  0
LINE
  5
46C
330
465
100
AcDbEntity
  8
SLD-0
100
AcDbLine
 10
7.0744942291
 20
4.4188124685
 30
0.0
 11
6.3559627502
 21
4.4188124685
 31
0.0
  0
LINE
  5
46D
330
465
100
AcDbEntity
  8
SLD-0
100
AcDbLine
 10
7.0744942291
 20
4.4188124685
 30
0.0
 11
7.1532343866
 21
4.4188124685
 31
0.0
  0
LINE
  5
46E
330
465
100
AcDbEntity
  8
SLD-0
100
AcDbLine
 10
7.1532343866
 20
4.4188124685
 30
0.0
 11
7.3932343866
 21
4.4188124685
 31
0.0
  0
MTEXT
  5
46F
330
465
100
AcDbEntity
  8
SLD-0
100
AcDbMText
 10
6.4184627502
 20
4.5262347824
 30
0.0
 40
0.0833333333
 41
0.0
 71
     1
 72
     1
  1
0.079
  7
SLDTEXTSTYLE0
 73
     1
 44
1.0
  0
ENDBLK
  5
467
330
465
100
AcDbEntity
  8
0
100
AcDbBlockEnd
  0
BLOCK
  5
473
330
472
100
AcDbEntity
  8
0
100
AcDbBlockBegin
  2
_D_11
 70
     0
 10
0.0
 20
0.0
 30
0.0
  3
_D_11
  1

  0
SOLID
  5
475
330
472
100
AcDbEntity
  8
SLD-0
100
AcDbTrace
 10
7.8167343866
 20
4.6524331549
 30
0.0
 11
7.8517343866
 21
4.7724331549
 31
0.0
 12
7.7817343866
 22
4.7724331549
 32
0.0
 13
7.7817343866
 23
4.7724331549
 33
0.0
  0
SOLID
  5
476
330
472
100
AcDbEntity
  8
SLD-0
100
AcDbTrace
 10
7.8167343866
 20
4.9759331549
 30
0.0
 11
7.7817343866
 21
4.8559331549
 31
0.0
 12
7.8517343866
 22
4.8559331549
 32
0.0
 13
7.8517343866
 23
4.8559331549
 33
0.0
  0
LINE
  5
477
330
472
100
AcDbEntity
  8
SLD-0
100
AcDbLine
 10
7.3953671552
 20
4.6524331549
 30
0.0
 11
7.8557343866
 21
4.6524331549
 31
0.0
  0
LINE
  5
478
330
472
100
AcDbEntity
  8
SLD-0
100
AcDbLine
 10
7.8167343866
 20
4.6524331549
 30
0.0
 11
7.8167343866
 21
4.2624065071
 31
0.0
  0
LINE
  5
479
330
472
100
AcDbEntity
  8
SLD-0
100
AcDbLine
 10
7.8167343866
 20
4.6524331549
 30
0.0
 11
7.8167343866
 21
4.9759331549
 31
0.0
  0
MTEXT
  5
47A
330
472
100
AcDbEntity
  8
SLD-0
100
AcDbMText
 10
7.7093120726
 20
4.3249065071
 30
0.0
 40
0.0833333333
 41
0.0
 71
     1
 72
     1
  1
0.324
  7
SLDTEXTSTYLE0
 11
6.123233995736766E-17
 21
1.0
 31
0.0
 73
     1
 44
1.0
  0
ENDBLK
  5
474
330
472
100
AcDbEntity
  8
0
100
AcDbBlockEnd
  0
BLOCK
  5
47E
330
47D
100
AcDbEntity
  8
0
100
AcDbBlockBegin
  2
_D_12
 70
     0
 10
0.0
 20
0.0
 30
0.0
  3
_D_12
  1

  0
ARC
  5
480
330
47D
100
AcDbEntity
  8
SLD-0
100
AcDbCircle
 10
7.3398266264
 20
4.0781795446
 30
0.0
 40
0.1480183544218465
100
AcDbArc
 50
213.4349488229
 51
266.5650511771
  0
ARC
  5
481
330
47D
100
AcDbEntity
  8
SLD-0
100
AcDbCircle
 10
7.4420997455
 20
4.255321783
 30
0.0
 40
0.1480183544218478
100
AcDbArc
 50
33.4349488229
 51
86.5650511771
  0
SOLID
  5
482
330
47D
100
AcDbEntity
  8
SLD-0
100
AcDbTrace
 10
7.2005843866
 20
3.7056488535
 30
0.0
 11
7.2908952757
 21
3.792071902
 31
0.0
 12
7.2302734974
 22
3.827071902
 32
0.0
 13
7.2302734974
 23
3.827071902
 33
0.0
  0
LINE
  5
483
330
47D
100
AcDbEntity
  8
SLD-0
100
AcDbLine
 10
7.2005843866
 20
3.7056488535
 30
0.0
 11
7.5964244071
 21
4.3912638808
 31
0.0
  0
LINE
  5
484
330
47D
100
AcDbEntity
  8
SLD-0
100
AcDbLine
 10
7.2005843866
 20
3.7056488535
 30
0.0
 11
7.1868343866
 21
3.6818331549
 31
0.0
  0
MTEXT
  5
485
330
47D
100
AcDbEntity
  8
SLD-0
100
AcDbMText
 10
7.2691776153
 20
4.0382648547
 30
0.0
 40
0.0833333333
 41
0.0
 71
     1
 72
     1
  1
R
  7
SLDTEXTSTYLE0
 11
0.4999999999999972
 21
0.8660254037844403
 31
0.0
 73
     1
 44
1.0
  0
MTEXT
  5
486
330
47D
100
AcDbEntity
  8
SLD-0
100
AcDbMText
 10
7.3028715263
 20
4.0966244205
 30
0.0
 40
0.0833333333
 41
0.0
 71
     1
 72
     1
  1
0.028
  7
SLDTEXTSTYLE0
 11
0.4999999999999972
 21
0.8660254037844403
 31
0.0
 73
     1
 44
1.0
  0
ENDBLK
  5
47F
330
47D
100
AcDbEntity
  8
0
100
AcDbBlockEnd
  0
BLOCK
  5
489
330
488
100
AcDbEntity
  8
0
100
AcDbBlockBegin
  2
_D_13
 70
     0
 10
0.0
 20
0.0
 30
0.0
  3
_D_13
  1

  0
ARC
  5
48B
330
488
100
AcDbEntity
  8
SLD-0
100
AcDbCircle
 10
7.4441879184
 20
3.9497392412
 30
0.0
 40
0.1480183544218485
100
AcDbArc
 50
213.4349488229
 51
266.5650511771
  0
ARC
  5
48C
330
488
100
AcDbEntity
  8
SLD-0
100
AcDbCircle
 10
7.5464610374
 20
4.1268814796
 30
0.0
 40
0.1480183544218502
100
AcDbArc
 50
33.4349488229
 51
86.5650511771
  0
SOLID
  5
48D
330
488
100
AcDbEntity
  8
SLD-0
100
AcDbTrace
 10
7.3530843866
 20
3.6611618046
 30
0.0
 11
7.4433952757
 21
3.747584853
 31
0.0
 12
7.3827734974
 22
3.782584853
 32
0.0
 13
7.3827734974
 23
3.782584853
 33
0.0
  0
LINE
  5
48E
330
488
100
AcDbEntity
  8
SLD-0
100
AcDbLine
 10
7.3530843866
 20
3.6611618046
 30
0.0
 11
7.7005369046
 21
4.2629672189
 31
0.0
  0
LINE
  5
48F
330
488
100
AcDbEntity
  8
SLD-0
100
AcDbLine
 10
7.3530843866
 20
3.6611618046
 30
0.0
 11
7.3442343866
 21
3.6458331549
 31
0.0
  0
MTEXT
  5
490
330
488
100
AcDbEntity
  8
SLD-0
100
AcDbMText
 10
7.3735389073
 20
3.9098245513
 30
0.0
 40
0.0833333333
 41
0.0
 71
     1
 72
     1
  1
R
  7
SLDTEXTSTYLE0
 11
0.4999999999999984
 21
0.8660254037844396
 31
0.0
 73
     1
 44
1.0
  0
MTEXT
  5
491
330
488
100
AcDbEntity
  8
SLD-0
100
AcDbMText
 10
7.4072328183
 20
3.9681841171
 30
0.0
 40
0.0833333333
 41
0.0
 71
     1
 72
     1
  1
0.018
  7
SLDTEXTSTYLE0
 11
0.4999999999999984
 21
0.8660254037844396
 31
0.0
 73
     1
 44
1.0
  0
ENDBLK
  5
48A
330
488
100
AcDbEntity
  8
0
100
AcDbBlockEnd
  0
BLOCK
  5
494
330
493
100
AcDbEntity
  8
0
100
AcDbBlockBegin
  2
_D_14
 70
     0
 10
0.0
 20
0.0
 30
0.0
  3
_D_14
  1

  0
ARC
  5
496
330
493
100
AcDbEntity
  8
SLD-0
100
AcDbCircle
 10
6.7383956021
 20
5.5650223193
 30
0.0
 40
0.1480183544218464
100
AcDbArc
 50
153.4349488229
 51
206.5650511771
  0
ARC
  5
497
330
493
100
AcDbEntity
  8
SLD-0
100
AcDbCircle
 10
6.8755540181
 20
5.5650223193
 30
0.0
 40
0.1480183544218472
100
AcDbArc
 50
333.4349488229
 51
26.5650511771
  0
SOLID
  5
498
330
493
100
AcDbEntity
  8
SLD-0
100
AcDbTrace
 10
7.206974544
 20
5.4988264988
 30
0.0
 11
7.086974544
 21
5.5338264988
 31
0.0
 12
7.086974544
 22
5.4638264988
 32
0.0
 13
7.086974544
 23
5.4638264988
 33
0.0
  0
SOLID
  5
499
330
493
100
AcDbEntity
  8
SLD-0
100
AcDbTrace
 10
7.256974544
 20
5.4988264988
 30
0.0
 11
7.376974544
 21
5.4638264988
 31
0.0
 12
7.376974544
 22
5.5338264988
 32
0.0
 13
7.376974544
 23
5.5338264988
 33
0.0
  0
LINE
  5
49A
330
493
100
AcDbEntity
  8
SLD-0
100
AcDbLine
 10
7.206974544
 20
4.7164331549
 30
0.0
 11
7.206974544
 21
5.5378264988
 31
0.0
  0
LINE
  5
49B
330
493
100
AcDbEntity
  8
SLD-0
100
AcDbLine
 10
7.256974544
 20
4.7164331549
 30
0.0
 11
7.256974544
 21
5.5378264988
 31
0.0
  0
LINE
  5
49C
330
493
100
AcDbEntity
  8
SLD-0
100
AcDbLine
 10
7.206974544
 20
5.4988264988
 30
0.0
 11
6.5435039611
 21
5.4988264988
 31
0.0
  0
LINE
  5
49D
330
493
100
AcDbEntity
  8
SLD-0
100
AcDbLine
 10
7.206974544
 20
5.4988264988
 30
0.0
 11
7.256974544
 21
5.4988264988
 31
0.0
  0
LINE
  5
49E
330
493
100
AcDbEntity
  8
SLD-0
100
AcDbLine
 10
7.256974544
 20
5.4988264988
 30
0.0
 11
7.496974544
 21
5.4988264988
 31
0.0
  0
MTEXT
  5
49F
330
493
100
AcDbEntity
  8
SLD-0
100
AcDbMText
 10
6.6685039611
 20
5.6062488127
 30
0.0
 40
0.0833333333
 41
0.0
 71
     1
 72
     1
  1
0.050
  7
SLDTEXTSTYLE0
 73
     1
 44
1.0
  0
ENDBLK
  5
495
330
493
100
AcDbEntity
  8
0
100
AcDbBlockEnd
  0
ENDSEC
  0
SECTION
  2
ENTITIES
  0
LINE
  5
53
330
1F
100
AcDbEntity
  8
0
  6
Continuous
 62
     7
370
    15
100
AcDbLine
 10
3.3003605951
 20
4.8028831431
 30
0.0
 11
3.3003605951
 21
4.8126334304
 31
0.0
  0
LINE
  5
54
330
1F
100
AcDbEntity
  8
0
  6
Continuous
 62
     7
370
    15
100
AcDbLine
 10
3.3003605951
 20
4.8028831431
 30
0.0
 11
3.2727105812
 21
4.8028831431
 31
0.0
  0
LINE
  5
55
330
1F
100
AcDbEntity
  8
0
  6
Continuous
 62
     7
370
    15
100
AcDbLine
 10
3.2727105812
 20
4.8028831431
 30
0.0
 11
3.2727105812
 21
4.8579831199
 31
0.0
  0
LINE
  5
56
330
1F
100
AcDbEntity
  8
0
  6
Continuous
 62
     7
370
    15
100
AcDbLine
 10
3.2727105812
 20
4.8579831199
 30
0.0
 11
3.3003605951
 21
4.8579831199
 31
0.0
  0
LINE
  5
57
330
1F
100
AcDbEntity
  8
0
  6
Continuous
 62
     7
370
    15
100
AcDbLine
 10
3.3003605951
 20
4.8480328548
 30
0.0
 11
3.3003605951
 21
4.8579831199
 31
0.0
  0
ARC
  5
58
330
1F
100
AcDbEntity
  8
0
  6
Continuous
 62
     7
370
    15
100
AcDbCircle
 10
3.3003605937
 20
4.8303331549
 30
0.0
 40
0.0176997175118707
100
AcDbArc
 50
90.0
 51
270.0
  0
LINE
  5
59
330
1F
100
AcDbEntity
  8
0
  6
Continuous
 62
     7
370
    15
100
AcDbLine
 10
3.3003605951
 20
4.8815832006
 30
0.0
 11
3.3003605951
 21
4.891333488
 31
0.0
  0
LINE
  5
5A
330
1F
100
AcDbEntity
  8
0
  6
Continuous
 62
     7
370
    15
100
AcDbLine
 10
3.3003605951
 20
4.8815832006
 30
0.0
 11
3.2727105812
 21
4.8815832006
 31
0.0
  0
LINE
  5
5B
330
1F
100
AcDbEntity
  8
0
  6
Continuous
 62
     7
370
    15
100
AcDbLine
 10
3.2727105812
 20
4.8815832006
 30
0.0
 11
3.2727105812
 21
4.9366831774
 31
0.0
  0
LINE
  5
5C
330
1F
100
AcDbEntity
  8
0
  6
Continuous
 62
     7
370
    15
100
AcDbLine
 10
3.2727105812
 20
4.9366831774
 30
0.0
 11
3.3003605951
 21
4.9366831774
 31
0.0
  0
ARC
  5
5D
330
1F
100
AcDbEntity
  8
0
  6
Continuous
 62
     7
370
    15
100
AcDbCircle
 10
3.3003605937
 20
4.9090331549
 30
0.0
 40
0.0176997175118707
100
AcDbArc
 50
90.0
 51
269.9999999999
  0
LINE
  5
5E
330
1F
100
AcDbEntity
  8
0
  6
Continuous
 62
     7
370
    15
100
AcDbLine
 10
3.3003605951
 20
4.926732839
 30
0.0
 11
3.3003605951
 21
4.9366831774
 31
0.0
  0
LINE
  5
5F
330
1F
100
AcDbEntity
  8
0
  6
Continuous
 62
     7
370
    15
100
AcDbLine
 10
2.8437588031
 20
3.7194313542
 30
0.0
 11
2.6437605985
 21
3.7194313542
 31
0.0
  0
LINE
  5
60
330
1F
100
AcDbEntity
  8
0
  6
Continuous
 62
     7
370
    15
100
AcDbLine
 10
2.8437605998
 20
3.6794331556
 30
0.0
 11
2.8437588031
 21
3.7194313542
 31
0.0
  0
LINE
  5
61
330
1F
100
AcDbEntity
  8
0
  6
Continuous
 62
     7
370
    15
100
AcDbLine
 10
2.8437605998
 20
3.6794331556
 30
0.0
 11
2.6437605985
 21
3.6794331556
 31
0.0
  0
LINE
  5
62
330
1F
100
AcDbEntity
  8
0
  6
Continuous
 62
     7
370
    15
100
AcDbLine
 10
2.6437605985
 20
3.7194313542
 30
0.0
 11
2.6437605985
 21
3.6794331556
 31
0.0
  0
LINE
  5
63
330
1F
100
AcDbEntity
  8
0
  6
Continuous
 62
     7
370
    15
100
AcDbLine
 10
2.4342605937
 20
4.6217831418
 30
0.0
 11
2.4618105935
 21
4.6217831418
 31
0.0
  0
LINE
  5
64
330
1F
100
AcDbEntity
  8
0
  6
Continuous
 62
     7
370
    15
100
AcDbLine
 10
2.4618105935
 20
4.6217831418
 30
0.0
 11
2.4618105935
 21
4.566683165
 31
0.0
  0
LINE
  5
65
330
1F
100
AcDbEntity
  8
0
  6
Continuous
 62
     7
370
    15
100
AcDbLine
 10
2.4618105935
 20
4.566683165
 30
0.0
 11
2.4342605937
 21
4.566683165
 31
0.0
  0
ARC
  5
66
330
1F
100
AcDbEntity
  8
0
  6
Continuous
 62
     7
370
    15
100
AcDbCircle
 10
2.4342605937
 20
4.5941331549
 30
0.0
 40
0.0176997175118707
100
AcDbArc
 50
270.0
 51
90.0
  0
LINE
  5
67
330
1F
100
AcDbEntity
  8
0
  6
Continuous
 62
     7
370
    15
100
AcDbLine
 10
2.4342605937
 20
4.5764334524
 30
0.0
 11
2.4342605937
 21
4.566683165
 31
0.0
  0
LINE
  5
68
330
1F
100
AcDbEntity
  8
0
  6
Continuous
 62
     7
370
    15
100
AcDbLine
 10
2.4342605937
 20
4.6217831418
 30
0.0
 11
2.4342605937
 21
4.6118328768
 31
0.0
  0
LINE
  5
69
330
1F
100
AcDbEntity
  8
0
  6
Continuous
 62
     7
370
    15
100
AcDbLine
 10
2.4342605937
 20
4.5429831321
 30
0.0
 11
2.4618105935
 21
4.5429831321
 31
0.0
  0
LINE
  5
6A
330
1F
100
AcDbEntity
  8
0
  6
Continuous
 62
     7
370
    15
100
AcDbLine
 10
2.4618105935
 20
4.5429831321
 30
0.0
 11
2.4618105935
 21
4.4878831553
 31
0.0
  0
LINE
  5
6B
330
1F
100
AcDbEntity
  8
0
  6
Continuous
 62
     7
370
    15
100
AcDbLine
 10
2.4618105935
 20
4.4878831553
 30
0.0
 11
2.4342605937
 21
4.4878831553
 31
0.0
  0
ARC
  5
6C
330
1F
100
AcDbEntity
  8
0
  6
Continuous
 62
     7
370
    15
100
AcDbCircle
 10
2.4342605937
 20
4.5153331549
 30
0.0
 40
0.0176997175118707
100
AcDbArc
 50
270.0
 51
90.0
  0
LINE
  5
6D
330
1F
100
AcDbEntity
  8
0
  6
Continuous
 62
     7
370
    15
100
AcDbLine
 10
2.4342605937
 20
4.5429831321
 30
0.0
 11
2.4342605937
 21
4.5330328671
 31
0.0
  0
LINE
  5
6E
330
1F
100
AcDbEntity
  8
0
  6
Continuous
 62
     7
370
    15
100
AcDbLine
 10
2.4342605937
 20
4.4976334427
 30
0.0
 11
2.4342605937
 21
4.4878831553
 31
0.0
  0
LINE
  5
6F
330
1F
100
AcDbEntity
  8
0
  6
Continuous
 62
     7
370
    15
100
AcDbLine
 10
2.4342605937
 20
4.4642831479
 30
0.0
 11
2.4618105935
 21
4.4642831479
 31
0.0
  0
LINE
  5
70
330
1F
100
AcDbEntity
  8
0
  6
Continuous
 62
     7
370
    15
100
AcDbLine
 10
2.4618105935
 20
4.4642831479
 30
0.0
 11
2.4618105935
 21
4.4091831711
 31
0.0
  0
LINE
  5
71
330
1F
100
AcDbEntity
  8
0
  6
Continuous
 62
     7
370
    15
100
AcDbLine
 10
2.4618105935
 20
4.4091831711
 30
0.0
 11
2.4342605937
 21
4.4091831711
 31
0.0
  0
ARC
  5
72
330
1F
100
AcDbEntity
  8
0
  6
Continuous
 62
     7
370
    15
100
AcDbCircle
 10
2.4342605937
 20
4.4366331549
 30
0.0
 40
0.0176997175118707
100
AcDbArc
 50
270.0
 51
90.0
  0
LINE
  5
73
330
1F
100
AcDbEntity
  8
0
  6
Continuous
 62
     7
370
    15
100
AcDbLine
 10
2.4342605937
 20
4.4642831479
 30
0.0
 11
2.4342605937
 21
4.4543328829
 31
0.0
  0
LINE
  5
74
330
1F
100
AcDbEntity
  8
0
  6
Continuous
 62
     7
370
    15
100
AcDbLine
 10
2.4342605937
 20
4.4189334585
 30
0.0
 11
2.4342605937
 21
4.4091831711
 31
0.0
  0
LINE
  5
75
330
1F
100
AcDbEntity
  8
0
  6
Continuous
 62
     7
370
    15
100
AcDbLine
 10
2.4342605937
 20
4.3854831382
 30
0.0
 11
2.4618105935
 21
4.3854831382
 31
0.0
  0
LINE
  5
76
330
1F
100
AcDbEntity
  8
0
  6
Continuous
 62
     7
370
    15
100
AcDbLine
 10
2.4618105935
 20
4.3854831382
 30
0.0
 11
2.4618105935
 21
4.3303831614
 31
0.0
  0
LINE
  5
77
330
1F
100
AcDbEntity
  8
0
  6
Continuous
 62
     7
370
    15
100
AcDbLine
 10
2.4618105935
 20
4.3303831614
 30
0.0
 11
2.4342605937
 21
4.3303831614
 31
0.0
  0
ARC
  5
78
330
1F
100
AcDbEntity
  8
0
  6
Continuous
 62
     7
370
    15
100
AcDbCircle
 10
2.4342605937
 20
4.3578331549
 30
0.0
 40
0.0176997175118707
100
AcDbArc
 50
270.0
 51
90.0
  0
LINE
  5
79
330
1F
100
AcDbEntity
  8
0
  6
Continuous
 62
     7
370
    15
100
AcDbLine
 10
2.4342605937
 20
4.3854831382
 30
0.0
 11
2.4342605937
 21
4.3755328732
 31
0.0
  0
LINE
  5
7A
330
1F
100
AcDbEntity
  8
0
  6
Continuous
 62
     7
370
    15
100
AcDbLine
 10
2.4342605937
 20
4.3401334488
 30
0.0
 11
2.4342605937
 21
4.3303831614
 31
0.0
  0
LINE
  5
7B
330
1F
100
AcDbEntity
  8
0
  6
Continuous
 62
     7
370
    15
100
AcDbLine
 10
2.4342605937
 20
4.3067831541
 30
0.0
 11
2.4618105935
 21
4.3067831541
 31
0.0
  0
LINE
  5
7C
330
1F
100
AcDbEntity
  8
0
  6
Continuous
 62
     7
370
    15
100
AcDbLine
 10
2.4618105935
 20
4.3067831541
 30
0.0
 11
2.4618105935
 21
4.2516831406
 31
0.0
  0
LINE
  5
7D
330
1F
100
AcDbEntity
  8
0
  6
Continuous
 62
     7
370
    15
100
AcDbLine
 10
2.4618105935
 20
4.2516831406
 30
0.0
 11
2.4342605937
 21
4.2516831406
 31
0.0
  0
ARC
  5
7E
330
1F
100
AcDbEntity
  8
0
  6
Continuous
 62
     7
370
    15
100
AcDbCircle
 10
2.4342605937
 20
4.2791331549
 30
0.0
 40
0.0176997175118707
100
AcDbArc
 50
270.0
 51
90.0
  0
LINE
  5
7F
330
1F
100
AcDbEntity
  8
0
  6
Continuous
 62
     7
370
    15
100
AcDbLine
 10
2.4342605937
 20
4.3067831541
 30
0.0
 11
2.4342605937
 21
4.296832889
 31
0.0
  0
LINE
  5
80
330
1F
100
AcDbEntity
  8
0
  6
Continuous
 62
     7
370
    15
100
AcDbLine
 10
2.4342605937
 20
4.2614334646
 30
0.0
 11
2.4342605937
 21
4.2516831406
 31
0.0
  0
LINE
  5
81
330
1F
100
AcDbEntity
  8
0
  6
Continuous
 62
     7
370
    15
100
AcDbLine
 10
2.4342605937
 20
4.2280831699
 30
0.0
 11
2.4618105935
 21
4.2280831699
 31
0.0
  0
LINE
  5
82
330
1F
100
AcDbEntity
  8
0
  6
Continuous
 62
     7
370
    15
100
AcDbLine
 10
2.4618105935
 20
4.2280831699
 30
0.0
 11
2.4618105935
 21
4.1729831564
 31
0.0
  0
LINE
  5
83
330
1F
100
AcDbEntity
  8
0
  6
Continuous
 62
     7
370
    15
100
AcDbLine
 10
2.4618105935
 20
4.1729831564
 30
0.0
 11
2.4342605937
 21
4.1729831564
 31
0.0
  0
ARC
  5
84
330
1F
100
AcDbEntity
  8
0
  6
Continuous
 62
     7
370
    15
100
AcDbCircle
 10
2.4342605937
 20
4.2004331549
 30
0.0
 40
0.0176997175118707
100
AcDbArc
 50
270.0
 51
90.0
  0
LINE
  5
85
330
1F
100
AcDbEntity
  8
0
  6
Continuous
 62
     7
370
    15
100
AcDbLine
 10
2.4342605937
 20
4.2280831699
 30
0.0
 11
2.4342605937
 21
4.2181328682
 31
0.0
  0
LINE
  5
86
330
1F
100
AcDbEntity
  8
0
  6
Continuous
 62
     7
370
    15
100
AcDbLine
 10
2.4342605937
 20
4.1827334438
 30
0.0
 11
2.4342605937
 21
4.1729831564
 31
0.0
  0
LINE
  5
87
330
1F
100
AcDbEntity
  8
0
  6
Continuous
 62
     7
370
    15
100
AcDbLine
 10
2.4342605937
 20
4.1492831602
 30
0.0
 11
2.4618105935
 21
4.1492831602
 31
0.0
  0
LINE
  5
88
330
1F
100
AcDbEntity
  8
0
  6
Continuous
 62
     7
370
    15
100
AcDbLine
 10
2.4618105935
 20
4.1492831602
 30
0.0
 11
2.4618105935
 21
4.0941831467
 31
0.0
  0
LINE
  5
89
330
1F
100
AcDbEntity
  8
0
  6
Continuous
 62
     7
370
    15
100
AcDbLine
 10
2.4618105935
 20
4.0941831467
 30
0.0
 11
2.4342605937
 21
4.0941831467
 31
0.0
  0
ARC
  5
8A
330
1F
100
AcDbEntity
  8
0
  6
Continuous
 62
     7
370
    15
100
AcDbCircle
 10
2.4342605937
 20
4.1216331549
 30
0.0
 40
0.0176997175118707
100
AcDbArc
 50
270.0
 51
90.0
  0
LINE
  5
8B
330
1F
100
AcDbEntity
  8
0
  6
Continuous
 62
     7
370
    15
100
AcDbLine
 10
2.4342605937
 20
4.1492831602
 30
0.0
 11
2.4342605937
 21
4.1393328585
 31
0.0
  0
LINE
  5
8C
330
1F
100
AcDbEntity
  8
0
  6
Continuous
 62
     7
370
    15
100
AcDbLine
 10
2.4342605937
 20
4.1039334341
 30
0.0
 11
2.4342605937
 21
4.0941831467
 31
0.0
  0
LINE
  5
8D
330
1F
100
AcDbEntity
  8
0
  6
Continuous
 62
     7
370
    15
100
AcDbLine
 10
2.4342605937
 20
4.0705831393
 30
0.0
 11
2.4618105935
 21
4.0705831393
 31
0.0
  0
LINE
  5
8E
330
1F
100
AcDbEntity
  8
0
  6
Continuous
 62
     7
370
    15
100
AcDbLine
 10
2.4618105935
 20
4.0705831393
 30
0.0
 11
2.4618105935
 21
4.0154831625
 31
0.0
  0
LINE
  5
8F
330
1F
100
AcDbEntity
  8
0
  6
Continuous
 62
     7
370
    15
100
AcDbLine
 10
2.4618105935
 20
4.0154831625
 30
0.0
 11
2.4342605937
 21
4.0154831625
 31
0.0
  0
ARC
  5
90
330
1F
100
AcDbEntity
  8
0
  6
Continuous
 62
     7
370
    15
100
AcDbCircle
 10
2.4342605937
 20
4.0429331549
 30
0.0
 40
0.0176997175118707
100
AcDbArc
 50
270.0
 51
90.0
  0
LINE
  5
91
330
1F
100
AcDbEntity
  8
0
  6
Continuous
 62
     7
370
    15
100
AcDbLine
 10
2.4342605937
 20
4.0705831393
 30
0.0
 11
2.4342605937
 21
4.0606328743
 31
0.0
  0
LINE
  5
92
330
1F
100
AcDbEntity
  8
0
  6
Continuous
 62
     7
370
    15
100
AcDbLine
 10
2.4342605937
 20
4.0252334499
 30
0.0
 11
2.4342605937
 21
4.0154831625
 31
0.0
  0
LINE
  5
93
330
1F
100
AcDbEntity
  8
0
  6
Continuous
 62
     7
370
    15
100
AcDbLine
 10
2.4342605937
 20
3.9917831663
 30
0.0
 11
2.4618105935
 21
3.9917831663
 31
0.0
  0
LINE
  5
94
330
1F
100
AcDbEntity
  8
0
  6
Continuous
 62
     7
370
    15
100
AcDbLine
 10
2.4618105935
 20
3.9917831663
 30
0.0
 11
2.4618105935
 21
3.9366831528
 31
0.0
  0
LINE
  5
95
330
1F
100
AcDbEntity
  8
0
  6
Continuous
 62
     7
370
    15
100
AcDbLine
 10
2.4618105935
 20
3.9366831528
 30
0.0
 11
2.4342605937
 21
3.9366831528
 31
0.0
  0
ARC
  5
96
330
1F
100
AcDbEntity
  8
0
  6
Continuous
 62
     7
370
    15
100
AcDbCircle
 10
2.4342605937
 20
3.9641331549
 30
0.0
 40
0.0176997175118707
100
AcDbArc
 50
270.0
 51
90.0
  0
LINE
  5
97
330
1F
100
AcDbEntity
  8
0
  6
Continuous
 62
     7
370
    15
100
AcDbLine
 10
2.4342605937
 20
3.9464334402
 30
0.0
 11
2.4342605937
 21
3.9366831528
 31
0.0
  0
LINE
  5
98
330
1F
100
AcDbEntity
  8
0
  6
Continuous
 62
     7
370
    15
100
AcDbLine
 10
2.4342605937
 20
3.9917831663
 30
0.0
 11
2.4342605937
 21
3.9818328646
 31
0.0
  0
LINE
  5
99
330
1F
100
AcDbEntity
  8
0
  6
Continuous
 62
     7
370
    15
100
AcDbLine
 10
2.4342605937
 20
3.9130831638
 30
0.0
 11
2.4618105935
 21
3.9130831638
 31
0.0
  0
LINE
  5
9A
330
1F
100
AcDbEntity
  8
0
  6
Continuous
 62
     7
370
    15
100
AcDbLine
 10
2.4618105935
 20
3.9130831638
 30
0.0
 11
2.4618105935
 21
3.8579831503
 31
0.0
  0
LINE
  5
9B
330
1F
100
AcDbEntity
  8
0
  6
Continuous
 62
     7
370
    15
100
AcDbLine
 10
2.4618105935
 20
3.8579831503
 30
0.0
 11
2.4342605937
 21
3.8579831503
 31
0.0
  0
ARC
  5
9C
330
1F
100
AcDbEntity
  8
0
  6
Continuous
 62
     7
370
    15
100
AcDbCircle
 10
2.4342605937
 20
3.8854331549
 30
0.0
 40
0.0176997175118707
100
AcDbArc
 50
270.0
 51
90.0
  0
LINE
  5
9D
330
1F
100
AcDbEntity
  8
0
  6
Continuous
 62
     7
370
    15
100
AcDbLine
 10
2.4342605937
 20
3.9130831638
 30
0.0
 11
2.4342605937
 21
3.9031328804
 31
0.0
  0
LINE
  5
9E
330
1F
100
AcDbEntity
  8
0
  6
Continuous
 62
     7
370
    15
100
AcDbLine
 10
2.4342605937
 20
3.8677334377
 30
0.0
 11
2.4342605937
 21
3.8579831503
 31
0.0
  0
LINE
  5
9F
330
1F
100
AcDbEntity
  8
0
  6
Continuous
 62
     7
370
    15
100
AcDbLine
 10
2.4342605937
 20
3.8343831613
 30
0.0
 11
2.4618105935
 21
3.8343831613
 31
0.0
  0
LINE
  5
A0
330
1F
100
AcDbEntity
  8
0
  6
Continuous
 62
     7
370
    15
100
AcDbLine
 10
2.4618105935
 20
3.8343831613
 30
0.0
 11
2.4618105935
 21
3.779283157
 31
0.0
  0
LINE
  5
A1
330
1F
100
AcDbEntity
  8
0
  6
Continuous
 62
     7
370
    15
100
AcDbLine
 10
2.4618105935
 20
3.779283157
 30
0.0
 11
2.4342605937
 21
3.779283157
 31
0.0
  0
ARC
  5
A2
330
1F
100
AcDbEntity
  8
0
  6
Continuous
 62
     7
370
    15
100
AcDbCircle
 10
2.4342605937
 20
3.8067331549
 30
0.0
 40
0.0176997175118707
100
AcDbArc
 50
270.0
 51
90.0
  0
LINE
  5
A3
330
1F
100
AcDbEntity
  8
0
  6
Continuous
 62
     7
370
    15
100
AcDbLine
 10
2.4342605937
 20
3.7890334352
 30
0.0
 11
2.4342605937
 21
3.779283157
 31
0.0
  0
LINE
  5
A4
330
1F
100
AcDbEntity
  8
0
  6
Continuous
 62
     7
370
    15
100
AcDbLine
 10
2.4342605937
 20
3.8343831613
 30
0.0
 11
2.4342605937
 21
3.8244328779
 31
0.0
  0
LINE
  5
A5
330
1F
100
AcDbEntity
  8
0
  6
Continuous
 62
     7
370
    15
100
AcDbLine
 10
2.4342605937
 20
3.7555831516
 30
0.0
 11
2.4618105935
 21
3.7555831516
 31
0.0
  0
LINE
  5
A6
330
1F
100
AcDbEntity
  8
0
  6
Continuous
 62
     7
370
    15
100
AcDbLine
 10
2.4618105935
 20
3.7555831516
 30
0.0
 11
2.4618105935
 21
3.7004831564
 31
0.0
  0
LINE
  5
A7
330
1F
100
AcDbEntity
  8
0
  6
Continuous
 62
     7
370
    15
100
AcDbLine
 10
2.4618105935
 20
3.7004831564
 30
0.0
 11
2.4342605937
 21
3.7004831564
 31
0.0
  0
ARC
  5
A8
330
1F
100
AcDbEntity
  8
0
  6
Continuous
 62
     7
370
    15
100
AcDbCircle
 10
2.4342605937
 20
3.7279331549
 30
0.0
 40
0.0176997175118707
100
AcDbArc
 50
270.0
 51
90.0
  0
LINE
  5
A9
330
1F
100
AcDbEntity
  8
0
  6
Continuous
 62
     7
370
    15
100
AcDbLine
 10
2.4342605937
 20
3.7102334392
 30
0.0
 11
2.4342605937
 21
3.7004831564
 31
0.0
  0
LINE
  5
AA
330
1F
100
AcDbEntity
  8
0
  6
Continuous
 62
     7
370
    15
100
AcDbLine
 10
2.4342605937
 20
3.7555831516
 30
0.0
 11
2.4342605937
 21
3.7456328682
 31
0.0
  0
LINE
  5
AB
330
1F
100
AcDbEntity
  8
0
  6
Continuous
 62
     7
370
    15
100
AcDbLine
 10
3.2727105812
 20
3.7004831564
 30
0.0
 11
3.2727105812
 21
3.7555831516
 31
0.0
  0
LINE
  5
AC
330
1F
100
AcDbEntity
  8
0
  6
Continuous
 62
     7
370
    15
100
AcDbLine
 10
3.2727105812
 20
3.7555831516
 30
0.0
 11
3.3002605696
 21
3.7555831516
 31
0.0
  0
LINE
  5
AD
330
1F
100
AcDbEntity
  8
0
  6
Continuous
 62
     7
370
    15
100
AcDbLine
 10
3.3002605696
 20
3.7004831564
 30
0.0
 11
3.2727105812
 21
3.7004831564
 31
0.0
  0
ARC
  5
AE
330
1F
100
AcDbEntity
  8
0
  6
Continuous
 62
     7
370
    15
100
AcDbCircle
 10
3.3002605937
 20
3.7279331549
 30
0.0
 40
0.0176997175118707
100
AcDbArc
 50
90.0
 51
270.0
  0
LINE
  5
AF
330
1F
100
AcDbEntity
  8
0
  6
Continuous
 62
     7
370
    15
100
AcDbLine
 10
3.3002605696
 20
3.7004831564
 30
0.0
 11
3.3002605696
 21
3.7102334392
 31
0.0
  0
LINE
  5
B0
330
1F
100
AcDbEntity
  8
0
  6
Continuous
 62
     7
370
    15
100
AcDbLine
 10
3.3002605696
 20
3.7456328682
 30
0.0
 11
3.3002605696
 21
3.7555831516
 31
0.0
  0
LINE
  5
B1
330
1F
100
AcDbEntity
  8
0
  6
Continuous
 62
     7
370
    15
100
AcDbLine
 10
2.564110592
 20
3.6458331549
 30
0.0
 11
2.5740608754
 21
3.6458331549
 31
0.0
  0
LINE
  5
B2
330
1F
100
AcDbEntity
  8
0
  6
Continuous
 62
     7
370
    15
100
AcDbLine
 10
2.564110592
 20
3.6458331549
 30
0.0
 11
2.564110592
 21
3.6734831548
 31
0.0
  0
LINE
  5
B3
330
1F
100
AcDbEntity
  8
0
  6
Continuous
 62
     7
370
    15
100
AcDbLine
 10
2.564110592
 20
3.6734831548
 30
0.0
 11
2.6192105871
 21
3.6734831548
 31
0.0
  0
ARC
  5
B4
330
1F
100
AcDbEntity
  8
0
  6
Continuous
 62
     7
370
    15
100
AcDbCircle
 10
2.5917605937
 20
3.6458331549
 30
0.0
 40
0.0176997175118707
100
AcDbArc
 50
0.0
 51
180.0
  0
LINE
  5
B5
330
1F
100
AcDbEntity
  8
0
  6
Continuous
 62
     7
370
    15
100
AcDbLine
 10
2.6192105871
 20
3.6734831548
 30
0.0
 11
2.6192105871
 21
3.6458331549
 31
0.0
  0
LINE
  5
B6
330
1F
100
AcDbEntity
  8
0
  6
Continuous
 62
     7
370
    15
100
AcDbLine
 10
2.6094603181
 20
3.6458331549
 30
0.0
 11
2.6192105871
 21
3.6458331549
 31
0.0
  0
LINE
  5
B7
330
1F
100
AcDbEntity
  8
0
  6
Continuous
 62
     7
370
    15
100
AcDbLine
 10
2.6428105945
 20
3.6458331549
 30
0.0
 11
2.6527608779
 21
3.6458331549
 31
0.0
  0
LINE
  5
B8
330
1F
100
AcDbEntity
  8
0
  6
Continuous
 62
     7
370
    15
100
AcDbLine
 10
2.6428105945
 20
3.6458331549
 30
0.0
 11
2.6428105945
 21
3.6734831548
 31
0.0
  0
LINE
  5
B9
330
1F
100
AcDbEntity
  8
0
  6
Continuous
 62
     7
370
    15
100
AcDbLine
 10
2.6428105945
 20
3.6734831548
 30
0.0
 11
2.6979105896
 21
3.6734831548
 31
0.0
  0
LINE
  5
BA
330
1F
100
AcDbEntity
  8
0
  6
Continuous
 62
     7
370
    15
100
AcDbLine
 10
2.6979105896
 20
3.6734831548
 30
0.0
 11
2.6979105896
 21
3.6458331549
 31
0.0
  0
LINE
  5
BB
330
1F
100
AcDbEntity
  8
0
  6
Continuous
 62
     7
370
    15
100
AcDbLine
 10
2.6881603023
 20
3.6458331549
 30
0.0
 11
2.6979105896
 21
3.6458331549
 31
0.0
  0
ARC
  5
BC
330
1F
100
AcDbEntity
  8
0
  6
Continuous
 62
     7
370
    15
100
AcDbCircle
 10
2.6704605937
 20
3.6458331549
 30
0.0
 40
0.0176997175118707
100
AcDbArc
 50
0.0
 51
180.0
  0
LINE
  5
BD
330
1F
100
AcDbEntity
  8
0
  6
Continuous
 62
     7
370
    15
100
AcDbLine
 10
2.7216105858
 20
3.6458331549
 30
0.0
 11
2.7315608692
 21
3.6458331549
 31
0.0
  0
LINE
  5
BE
330
1F
100
AcDbEntity
  8
0
  6
Continuous
 62
     7
370
    15
100
AcDbLine
 10
2.7216105858
 20
3.6458331549
 30
0.0
 11
2.7216105858
 21
3.6734831548
 31
0.0
  0
LINE
  5
BF
330
1F
100
AcDbEntity
  8
0
  6
Continuous
 62
     7
370
    15
100
AcDbLine
 10
2.7216105858
 20
3.6734831548
 30
0.0
 11
2.776710581
 21
3.6734831548
 31
0.0
  0
LINE
  5
C0
330
1F
100
AcDbEntity
  8
0
  6
Continuous
 62
     7
370
    15
100
AcDbLine
 10
2.776710581
 20
3.6734831548
 30
0.0
 11
2.776710581
 21
3.6458331549
 31
0.0
  0
LINE
  5
C1
330
1F
100
AcDbEntity
  8
0
  6
Continuous
 62
     7
370
    15
100
AcDbLine
 10
2.7669602936
 20
3.6458331549
 30
0.0
 11
2.776710581
 21
3.6458331549
 31
0.0
  0
ARC
  5
C2
330
1F
100
AcDbEntity
  8
0
  6
Continuous
 62
     7
370
    15
100
AcDbCircle
 10
2.7492605937
 20
3.6458331549
 30
0.0
 40
0.0176997175118703
100
AcDbArc
 50
0.0
 51
180.0
  0
LINE
  5
C3
330
1F
100
AcDbEntity
  8
0
  6
Continuous
 62
     7
370
    15
100
AcDbLine
 10
2.8003105884
 20
3.6458331549
 30
0.0
 11
2.8102608901
 21
3.6458331549
 31
0.0
  0
LINE
  5
C4
330
1F
100
AcDbEntity
  8
0
  6
Continuous
 62
     7
370
    15
100
AcDbLine
 10
2.8003105884
 20
3.6458331549
 30
0.0
 11
2.8003105884
 21
3.6734831548
 31
0.0
  0
LINE
  5
C5
330
1F
100
AcDbEntity
  8
0
  6
Continuous
 62
     7
370
    15
100
AcDbLine
 10
2.8003105884
 20
3.6734831548
 30
0.0
 11
2.8554106018
 21
3.6734831548
 31
0.0
  0
LINE
  5
C6
330
1F
100
AcDbEntity
  8
0
  6
Continuous
 62
     7
370
    15
100
AcDbLine
 10
2.8554106018
 20
3.6734831548
 30
0.0
 11
2.8554106018
 21
3.6458331549
 31
0.0
  0
LINE
  5
C7
330
1F
100
AcDbEntity
  8
0
  6
Continuous
 62
     7
370
    15
100
AcDbLine
 10
2.8456603145
 20
3.6458331549
 30
0.0
 11
2.8554106018
 21
3.6458331549
 31
0.0
  0
ARC
  5
C8
330
1F
100
AcDbEntity
  8
0
  6
Continuous
 62
     7
370
    15
100
AcDbCircle
 10
2.8279605937
 20
3.6458331549
 30
0.0
 40
0.0176997175118707
100
AcDbArc
 50
0.0
 51
180.0
  0
LINE
  5
C9
330
1F
100
AcDbEntity
  8
0
  6
Continuous
 62
     7
370
    15
100
AcDbLine
 10
2.8791105981
 20
3.6458331549
 30
0.0
 11
2.8890608631
 21
3.6458331549
 31
0.0
  0
LINE
  5
CA
330
1F
100
AcDbEntity
  8
0
  6
Continuous
 62
     7
370
    15
100
AcDbLine
 10
2.8791105981
 20
3.6458331549
 30
0.0
 11
2.8791105981
 21
3.6734831548
 31
0.0
  0
LINE
  5
CB
330
1F
100
AcDbEntity
  8
0
  6
Continuous
 62
     7
370
    15
100
AcDbLine
 10
2.8791105981
 20
3.6734831548
 30
0.0
 11
2.9342106115
 21
3.6734831548
 31
0.0
  0
LINE
  5
CC
330
1F
100
AcDbEntity
  8
0
  6
Continuous
 62
     7
370
    15
100
AcDbLine
 10
2.9342106115
 20
3.6734831548
 30
0.0
 11
2.9342106115
 21
3.6458331549
 31
0.0
  0
LINE
  5
CD
330
1F
100
AcDbEntity
  8
0
  6
Continuous
 62
     7
370
    15
100
AcDbLine
 10
2.9244603242
 20
3.6458331549
 30
0.0
 11
2.9342106115
 21
3.6458331549
 31
0.0
  0
ARC
  5
CE
330
1F
100
AcDbEntity
  8
0
  6
Continuous
 62
     7
370
    15
100
AcDbCircle
 10
2.9067605937
 20
3.6458331549
 30
0.0
 40
0.0176997175118707
100
AcDbArc
 50
0.0
 51
180.0
  0
LINE
  5
CF
330
1F
100
AcDbEntity
  8
0
  6
Continuous
 62
     7
370
    15
100
AcDbLine
 10
2.9578105822
 20
3.6458331549
 30
0.0
 11
2.967760884
 21
3.6458331549
 31
0.0
  0
LINE
  5
D0
330
1F
100
AcDbEntity
  8
0
  6
Continuous
 62
     7
370
    15
100
AcDbLine
 10
2.9578105822
 20
3.6458331549
 30
0.0
 11
2.9578105822
 21
3.6734831548
 31
0.0
  0
LINE
  5
D1
330
1F
100
AcDbEntity
  8
0
  6
Continuous
 62
     7
370
    15
100
AcDbLine
 10
2.9578105822
 20
3.6734831548
 30
0.0
 11
3.0129105957
 21
3.6734831548
 31
0.0
  0
LINE
  5
D2
330
1F
100
AcDbEntity
  8
0
  6
Continuous
 62
     7
370
    15
100
AcDbLine
 10
3.0129105957
 20
3.6734831548
 30
0.0
 11
3.0129105957
 21
3.6458331549
 31
0.0
  0
LINE
  5
D3
330
1F
100
AcDbEntity
  8
0
  6
Continuous
 62
     7
370
    15
100
AcDbLine
 10
3.0031603084
 20
3.6458331549
 30
0.0
 11
3.0129105957
 21
3.6458331549
 31
0.0
  0
ARC
  5
D4
330
1F
100
AcDbEntity
  8
0
  6
Continuous
 62
     7
370
    15
100
AcDbCircle
 10
2.9854605937
 20
3.6458331549
 30
0.0
 40
0.0176997175118703
100
AcDbArc
 50
0.0
 51
180.0
  0
LINE
  5
D5
330
1F
100
AcDbEntity
  8
0
  6
Continuous
 62
     7
370
    15
100
AcDbLine
 10
2.8887606033
 20
3.7194304559
 30
0.0
 11
2.8887606033
 21
3.679432255
 31
0.0
  0
LINE
  5
D6
330
1F
100
AcDbEntity
  8
0
  6
Continuous
 62
     7
370
    15
100
AcDbLine
 10
3.0887588262
 20
3.7194304559
 30
0.0
 11
2.8887606033
 21
3.7194304559
 31
0.0
  0
LINE
  5
D7
330
1F
100
AcDbEntity
  8
0
  6
Continuous
 62
     7
370
    15
100
AcDbLine
 10
3.0887605862
 20
3.679432255
 30
0.0
 11
3.0887588262
 21
3.7194304559
 31
0.0
  0
LINE
  5
D8
330
1F
100
AcDbEntity
  8
0
  6
Continuous
 62
     7
370
    15
100
AcDbLine
 10
3.0887605862
 20
3.679432255
 30
0.0
 11
2.8887606033
 21
3.679432255
 31
0.0
  0
LINE
  5
D9
330
1F
100
AcDbEntity
  8
0
  6
Continuous
 62
     7
370
    15
100
AcDbLine
 10
3.0365106031
 20
3.6458331549
 30
0.0
 11
3.0464608682
 21
3.6458331549
 31
0.0
  0
LINE
  5
DA
330
1F
100
AcDbEntity
  8
0
  6
Continuous
 62
     7
370
    15
100
AcDbLine
 10
3.0365106031
 20
3.6458331549
 30
0.0
 11
3.0365106031
 21
3.6734831548
 31
0.0
  0
LINE
  5
DB
330
1F
100
AcDbEntity
  8
0
  6
Continuous
 62
     7
370
    15
100
AcDbLine
 10
3.0365106031
 20
3.6734831548
 30
0.0
 11
3.0916105799
 21
3.6734831548
 31
0.0
  0
LINE
  5
DC
330
1F
100
AcDbEntity
  8
0
  6
Continuous
 62
     7
370
    15
100
AcDbLine
 10
3.0916105799
 20
3.6734831548
 30
0.0
 11
3.0916105799
 21
3.6458331549
 31
0.0
  0
LINE
  5
DD
330
1F
100
AcDbEntity
  8
0
  6
Continuous
 62
     7
370
    15
100
AcDbLine
 10
3.0818602925
 20
3.6458331549
 30
0.0
 11
3.0916105799
 21
3.6458331549
 31
0.0
  0
ARC
  5
DE
330
1F
100
AcDbEntity
  8
0
  6
Continuous
 62
     7
370
    15
100
AcDbCircle
 10
3.0641605937
 20
3.6458331549
 30
0.0
 40
0.0176997175118707
100
AcDbArc
 50
0.0
 51
180.0
  0
LINE
  5
DF
330
1F
100
AcDbEntity
  8
0
  6
Continuous
 62
     7
370
    15
100
AcDbLine
 10
3.1153106128
 20
3.6458331549
 30
0.0
 11
3.1252608778
 21
3.6458331549
 31
0.0
  0
LINE
  5
E0
330
1F
100
AcDbEntity
  8
0
  6
Continuous
 62
     7
370
    15
100
AcDbLine
 10
3.1153106128
 20
3.6458331549
 30
0.0
 11
3.1153106128
 21
3.6734831548
 31
0.0
  0
LINE
  5
E1
330
1F
100
AcDbEntity
  8
0
  6
Continuous
 62
     7
370
    15
100
AcDbLine
 10
3.1153106128
 20
3.6734831548
 30
0.0
 11
3.1704105896
 21
3.6734831548
 31
0.0
  0
LINE
  5
E2
330
1F
100
AcDbEntity
  8
0
  6
Continuous
 62
     7
370
    15
100
AcDbLine
 10
3.1704105896
 20
3.6734831548
 30
0.0
 11
3.1704105896
 21
3.6458331549
 31
0.0
  0
LINE
  5
E3
330
1F
100
AcDbEntity
  8
0
  6
Continuous
 62
     7
370
    15
100
AcDbLine
 10
3.1606603022
 20
3.6458331549
 30
0.0
 11
3.1704105896
 21
3.6458331549
 31
0.0
  0
ARC
  5
E4
330
1F
100
AcDbEntity
  8
0
  6
Continuous
 62
     7
370
    15
100
AcDbCircle
 10
3.1429605937
 20
3.6458331549
 30
0.0
 40
0.0176997175118707
100
AcDbArc
 50
0.0
 51
180.0
  0
LINE
  5
E5
330
1F
100
AcDbEntity
  8
0
  6
Continuous
 62
     7
370
    15
100
AcDbLine
 10
3.2727105812
 20
4.3303831614
 30
0.0
 11
3.2727105812
 21
4.3854831382
 31
0.0
  0
LINE
  5
E6
330
1F
100
AcDbEntity
  8
0
  6
Continuous
 62
     7
370
    15
100
AcDbLine
 10
3.2727105812
 20
4.3854831382
 30
0.0
 11
3.3002605696
 21
4.3854831382
 31
0.0
  0
LINE
  5
E7
330
1F
100
AcDbEntity
  8
0
  6
Continuous
 62
     7
370
    15
100
AcDbLine
 10
3.3002605696
 20
4.3303831614
 30
0.0
 11
3.2727105812
 21
4.3303831614
 31
0.0
  0
ARC
  5
E8
330
1F
100
AcDbEntity
  8
0
  6
Continuous
 62
     7
370
    15
100
AcDbCircle
 10
3.3002605937
 20
4.3578331549
 30
0.0
 40
0.0176997175118707
100
AcDbArc
 50
90.0
 51
270.0
  0
LINE
  5
E9
330
1F
100
AcDbEntity
  8
0
  6
Continuous
 62
     7
370
    15
100
AcDbLine
 10
3.3002605696
 20
4.3303831614
 30
0.0
 11
3.3002605696
 21
4.3401334488
 31
0.0
  0
LINE
  5
EA
330
1F
100
AcDbEntity
  8
0
  6
Continuous
 62
     7
370
    15
100
AcDbLine
 10
3.3002605696
 20
4.3755328732
 30
0.0
 11
3.3002605696
 21
4.3854831382
 31
0.0
  0
LINE
  5
EB
330
1F
100
AcDbEntity
  8
0
  6
Continuous
 62
     7
370
    15
100
AcDbLine
 10
3.3002605696
 20
3.779283157
 30
0.0
 11
3.2727105812
 21
3.779283157
 31
0.0
  0
LINE
  5
EC
330
1F
100
AcDbEntity
  8
0
  6
Continuous
 62
     7
370
    15
100
AcDbLine
 10
3.2727105812
 20
3.779283157
 30
0.0
 11
3.2727105812
 21
3.8343831613
 31
0.0
  0
LINE
  5
ED
330
1F
100
AcDbEntity
  8
0
  6
Continuous
 62
     7
370
    15
100
AcDbLine
 10
3.2727105812
 20
3.8343831613
 30
0.0
 11
3.3002605696
 21
3.8343831613
 31
0.0
  0
ARC
  5
EE
330
1F
100
AcDbEntity
  8
0
  6
Continuous
 62
     7
370
    15
100
AcDbCircle
 10
3.3002605937
 20
3.8067331549
 30
0.0
 40
0.0176997175118707
100
AcDbArc
 50
90.0
 51
270.0
  0
LINE
  5
EF
330
1F
100
AcDbEntity
  8
0
  6
Continuous
 62
     7
370
    15
100
AcDbLine
 10
3.3002605696
 20
3.779283157
 30
0.0
 11
3.3002605696
 21
3.7890334352
 31
0.0
  0
LINE
  5
F0
330
1F
100
AcDbEntity
  8
0
  6
Continuous
 62
     7
370
    15
100
AcDbLine
 10
3.3002605696
 20
3.8244328779
 30
0.0
 11
3.3002605696
 21
3.8343831613
 31
0.0
  0
LINE
  5
F1
330
1F
100
AcDbEntity
  8
0
  6
Continuous
 62
     7
370
    15
100
AcDbLine
 10
3.3002605696
 20
3.8579831503
 30
0.0
 11
3.2727105812
 21
3.8579831503
 31
0.0
  0
LINE
  5
F2
330
1F
100
AcDbEntity
  8
0
  6
Continuous
 62
     7
370
    15
100
AcDbLine
 10
3.2727105812
 20
3.8579831503
 30
0.0
 11
3.2727105812
 21
3.9130831638
 31
0.0
  0
LINE
  5
F3
330
1F
100
AcDbEntity
  8
0
  6
Continuous
 62
     7
370
    15
100
AcDbLine
 10
3.2727105812
 20
3.9130831638
 30
0.0
 11
3.3002605696
 21
3.9130831638
 31
0.0
  0
ARC
  5
F4
330
1F
100
AcDbEntity
  8
0
  6
Continuous
 62
     7
370
    15
100
AcDbCircle
 10
3.3002605937
 20
3.8854331549
 30
0.0
 40
0.0176997175118707
100
AcDbArc
 50
90.0
 51
270.0
  0
LINE
  5
F5
330
1F
100
AcDbEntity
  8
0
  6
Continuous
 62
     7
370
    15
100
AcDbLine
 10
3.3002605696
 20
3.8579831503
 30
0.0
 11
3.3002605696
 21
3.8677334377
 31
0.0
  0
LINE
  5
F6
330
1F
100
AcDbEntity
  8
0
  6
Continuous
 62
     7
370
    15
100
AcDbLine
 10
3.3002605696
 20
3.9031328804
 30
0.0
 11
3.3002605696
 21
3.9130831638
 31
0.0
  0
LINE
  5
F7
330
1F
100
AcDbEntity
  8
0
  6
Continuous
 62
     7
370
    15
100
AcDbLine
 10
3.3002605696
 20
3.9366831528
 30
0.0
 11
3.2727105812
 21
3.9366831528
 31
0.0
  0
LINE
  5
F8
330
1F
100
AcDbEntity
  8
0
  6
Continuous
 62
     7
370
    15
100
AcDbLine
 10
3.2727105812
 20
3.9366831528
 30
0.0
 11
3.2727105812
 21
3.9917831663
 31
0.0
  0
LINE
  5
F9
330
1F
100
AcDbEntity
  8
0
  6
Continuous
 62
     7
370
    15
100
AcDbLine
 10
3.2727105812
 20
3.9917831663
 30
0.0
 11
3.3002605696
 21
3.9917831663
 31
0.0
  0
ARC
  5
FA
330
1F
100
AcDbEntity
  8
0
  6
Continuous
 62
     7
370
    15
100
AcDbCircle
 10
3.3002605937
 20
3.9641331549
 30
0.0
 40
0.0176997175118707
100
AcDbArc
 50
90.0
 51
270.0
  0
LINE
  5
FB
330
1F
100
AcDbEntity
  8
0
  6
Continuous
 62
     7
370
    15
100
AcDbLine
 10
3.3002605696
 20
3.9366831528
 30
0.0
 11
3.3002605696
 21
3.9464334402
 31
0.0
  0
LINE
  5
FC
330
1F
100
AcDbEntity
  8
0
  6
Continuous
 62
     7
370
    15
100
AcDbLine
 10
3.3002605696
 20
3.9818328646
 30
0.0
 11
3.3002605696
 21
3.9917831663
 31
0.0
  0
LINE
  5
FD
330
1F
100
AcDbEntity
  8
0
  6
Continuous
 62
     7
370
    15
100
AcDbLine
 10
3.3002605696
 20
4.0154831625
 30
0.0
 11
3.2727105812
 21
4.0154831625
 31
0.0
  0
LINE
  5
FE
330
1F
100
AcDbEntity
  8
0
  6
Continuous
 62
     7
370
    15
100
AcDbLine
 10
3.2727105812
 20
4.0705831393
 30
0.0
 11
3.3002605696
 21
4.0705831393
 31
0.0
  0
LINE
  5
FF
330
1F
100
AcDbEntity
  8
0
  6
Continuous
 62
     7
370
    15
100
AcDbLine
 10
3.2727105812
 20
4.0154831625
 30
0.0
 11
3.2727105812
 21
4.0705831393
 31
0.0
  0
ARC
  5
100
330
1F
100
AcDbEntity
  8
0
  6
Continuous
 62
     7
370
    15
100
AcDbCircle
 10
3.3002605937
 20
4.0429331549
 30
0.0
 40
0.0176997175118707
100
AcDbArc
 50
90.0
 51
270.0
  0
LINE
  5
101
330
1F
100
AcDbEntity
  8
0
  6
Continuous
 62
     7
370
    15
100
AcDbLine
 10
3.3002605696
 20
4.0154831625
 30
0.0
 11
3.3002605696
 21
4.0252334499
 31
0.0
  0
LINE
  5
102
330
1F
100
AcDbEntity
  8
0
  6
Continuous
 62
     7
370
    15
100
AcDbLine
 10
3.3002605696
 20
4.0606328743
 30
0.0
 11
3.3002605696
 21
4.0705831393
 31
0.0
  0
LINE
  5
103
330
1F
100
AcDbEntity
  8
0
  6
Continuous
 62
     7
370
    15
100
AcDbLine
 10
3.3002605696
 20
4.0941831467
 30
0.0
 11
3.2727105812
 21
4.0941831467
 31
0.0
  0
LINE
  5
104
330
1F
100
AcDbEntity
  8
0
  6
Continuous
 62
     7
370
    15
100
AcDbLine
 10
3.2727105812
 20
4.0941831467
 30
0.0
 11
3.2727105812
 21
4.1492831602
 31
0.0
  0
LINE
  5
105
330
1F
100
AcDbEntity
  8
0
  6
Continuous
 62
     7
370
    15
100
AcDbLine
 10
3.2727105812
 20
4.1492831602
 30
0.0
 11
3.3002605696
 21
4.1492831602
 31
0.0
  0
ARC
  5
106
330
1F
100
AcDbEntity
  8
0
  6
Continuous
 62
     7
370
    15
100
AcDbCircle
 10
3.3002605937
 20
4.1216331549
 30
0.0
 40
0.0176997175118707
100
AcDbArc
 50
90.0
 51
270.0
  0
LINE
  5
107
330
1F
100
AcDbEntity
  8
0
  6
Continuous
 62
     7
370
    15
100
AcDbLine
 10
3.3002605696
 20
4.0941831467
 30
0.0
 11
3.3002605696
 21
4.1039334341
 31
0.0
  0
LINE
  5
108
330
1F
100
AcDbEntity
  8
0
  6
Continuous
 62
     7
370
    15
100
AcDbLine
 10
3.3002605696
 20
4.1393328585
 30
0.0
 11
3.3002605696
 21
4.1492831602
 31
0.0
  0
LINE
  5
109
330
1F
100
AcDbEntity
  8
0
  6
Continuous
 62
     7
370
    15
100
AcDbLine
 10
3.3002605696
 20
4.1729831564
 30
0.0
 11
3.2727105812
 21
4.1729831564
 31
0.0
  0
LINE
  5
10A
330
1F
100
AcDbEntity
  8
0
  6
Continuous
 62
     7
370
    15
100
AcDbLine
 10
3.2727105812
 20
4.1729831564
 30
0.0
 11
3.2727105812
 21
4.2280831699
 31
0.0
  0
LINE
  5
10B
330
1F
100
AcDbEntity
  8
0
  6
Continuous
 62
     7
370
    15
100
AcDbLine
 10
3.2727105812
 20
4.2280831699
 30
0.0
 11
3.3002605696
 21
4.2280831699
 31
0.0
  0
ARC
  5
10C
330
1F
100
AcDbEntity
  8
0
  6
Continuous
 62
     7
370
    15
100
AcDbCircle
 10
3.3002605937
 20
4.2004331549
 30
0.0
 40
0.0176997175118707
100
AcDbArc
 50
90.0
 51
270.0
  0
LINE
  5
10D
330
1F
100
AcDbEntity
  8
0
  6
Continuous
 62
     7
370
    15
100
AcDbLine
 10
3.3002605696
 20
4.1729831564
 30
0.0
 11
3.3002605696
 21
4.1827334438
 31
0.0
  0
LINE
  5
10E
330
1F
100
AcDbEntity
  8
0
  6
Continuous
 62
     7
370
    15
100
AcDbLine
 10
3.3002605696
 20
4.2181328682
 30
0.0
 11
3.3002605696
 21
4.2280831699
 31
0.0
  0
LINE
  5
10F
330
1F
100
AcDbEntity
  8
0
  6
Continuous
 62
     7
370
    15
100
AcDbLine
 10
3.3002605696
 20
4.2516831406
 30
0.0
 11
3.2727105812
 21
4.2516831406
 31
0.0
  0
LINE
  5
110
330
1F
100
AcDbEntity
  8
0
  6
Continuous
 62
     7
370
    15
100
AcDbLine
 10
3.2727105812
 20
4.2516831406
 30
0.0
 11
3.2727105812
 21
4.3067831541
 31
0.0
  0
LINE
  5
111
330
1F
100
AcDbEntity
  8
0
  6
Continuous
 62
     7
370
    15
100
AcDbLine
 10
3.2727105812
 20
4.3067831541
 30
0.0
 11
3.3002605696
 21
4.3067831541
 31
0.0
  0
ARC
  5
112
330
1F
100
AcDbEntity
  8
0
  6
Continuous
 62
     7
370
    15
100
AcDbCircle
 10
3.3002605937
 20
4.2791331549
 30
0.0
 40
0.0176997175118707
100
AcDbArc
 50
90.0
 51
270.0
  0
LINE
  5
113
330
1F
100
AcDbEntity
  8
0
  6
Continuous
 62
     7
370
    15
100
AcDbLine
 10
3.3002605696
 20
4.2516831406
 30
0.0
 11
3.3002605696
 21
4.2614334646
 31
0.0
  0
LINE
  5
114
330
1F
100
AcDbEntity
  8
0
  6
Continuous
 62
     7
370
    15
100
AcDbLine
 10
3.3002605696
 20
4.296832889
 30
0.0
 11
3.3002605696
 21
4.3067831541
 31
0.0
  0
LINE
  5
115
330
1F
100
AcDbEntity
  8
0
  6
Continuous
 62
     7
370
    15
100
AcDbLine
 10
3.3002605696
 20
4.4091831711
 30
0.0
 11
3.2727105812
 21
4.4091831711
 31
0.0
  0
LINE
  5
116
330
1F
100
AcDbEntity
  8
0
  6
Continuous
 62
     7
370
    15
100
AcDbLine
 10
3.2727105812
 20
4.4091831711
 30
0.0
 11
3.2727105812
 21
4.4642831479
 31
0.0
  0
LINE
  5
117
330
1F
100
AcDbEntity
  8
0
  6
Continuous
 62
     7
370
    15
100
AcDbLine
 10
3.2727105812
 20
4.4642831479
 30
0.0
 11
3.3002605696
 21
4.4642831479
 31
0.0
  0
ARC
  5
118
330
1F
100
AcDbEntity
  8
0
  6
Continuous
 62
     7
370
    15
100
AcDbCircle
 10
3.3002605937
 20
4.4366331549
 30
0.0
 40
0.0176997175118707
100
AcDbArc
 50
90.0
 51
269.9999999999
  0
LINE
  5
119
330
1F
100
AcDbEntity
  8
0
  6
Continuous
 62
     7
370
    15
100
AcDbLine
 10
3.3002605696
 20
4.4091831711
 30
0.0
 11
3.3002605696
 21
4.4189334585
 31
0.0
  0
LINE
  5
11A
330
1F
100
AcDbEntity
  8
0
  6
Continuous
 62
     7
370
    15
100
AcDbLine
 10
3.3002605696
 20
4.4543328829
 30
0.0
 11
3.3002605696
 21
4.4642831479
 31
0.0
  0
LINE
  5
11B
330
1F
100
AcDbEntity
  8
0
  6
Continuous
 62
     7
370
    15
100
AcDbLine
 10
3.3002605696
 20
4.4878831553
 30
0.0
 11
3.2727105812
 21
4.4878831553
 31
0.0
  0
LINE
  5
11C
330
1F
100
AcDbEntity
  8
0
  6
Continuous
 62
     7
370
    15
100
AcDbLine
 10
3.2727105812
 20
4.4878831553
 30
0.0
 11
3.2727105812
 21
4.5429831321
 31
0.0
  0
LINE
  5
11D
330
1F
100
AcDbEntity
  8
0
  6
Continuous
 62
     7
370
    15
100
AcDbLine
 10
3.2727105812
 20
4.5429831321
 30
0.0
 11
3.3002605696
 21
4.5429831321
 31
0.0
  0
ARC
  5
11E
330
1F
100
AcDbEntity
  8
0
  6
Continuous
 62
     7
370
    15
100
AcDbCircle
 10
3.3002605937
 20
4.5153331549
 30
0.0
 40
0.0176997175118707
100
AcDbArc
 50
90.0
 51
269.9999999999
  0
LINE
  5
11F
330
1F
100
AcDbEntity
  8
0
  6
Continuous
 62
     7
370
    15
100
AcDbLine
 10
3.3002605696
 20
4.5330328671
 30
0.0
 11
3.3002605696
 21
4.5429831321
 31
0.0
  0
LINE
  5
120
330
1F
100
AcDbEntity
  8
0
  6
Continuous
 62
     7
370
    15
100
AcDbLine
 10
3.3002605696
 20
4.4878831553
 30
0.0
 11
3.3002605696
 21
4.4976334427
 31
0.0
  0
LINE
  5
121
330
1F
100
AcDbEntity
  8
0
  6
Continuous
 62
     7
370
    15
100
AcDbLine
 10
3.3002605696
 20
4.566683165
 30
0.0
 11
3.2727105812
 21
4.566683165
 31
0.0
  0
LINE
  5
122
330
1F
100
AcDbEntity
  8
0
  6
Continuous
 62
     7
370
    15
100
AcDbLine
 10
3.2727105812
 20
4.6217831418
 30
0.0
 11
3.3002605696
 21
4.6217831418
 31
0.0
  0
LINE
  5
123
330
1F
100
AcDbEntity
  8
0
  6
Continuous
 62
     7
370
    15
100
AcDbLine
 10
3.2727105812
 20
4.566683165
 30
0.0
 11
3.2727105812
 21
4.6217831418
 31
0.0
  0
ARC
  5
124
330
1F
100
AcDbEntity
  8
0
  6
Continuous
 62
     7
370
    15
100
AcDbCircle
 10
3.3002605937
 20
4.5941331549
 30
0.0
 40
0.0176997175118707
100
AcDbArc
 50
90.0
 51
269.9999999999
  0
LINE
  5
125
330
1F
100
AcDbEntity
  8
0
  6
Continuous
 62
     7
370
    15
100
AcDbLine
 10
3.3002605696
 20
4.566683165
 30
0.0
 11
3.3002605696
 21
4.5764334524
 31
0.0
  0
LINE
  5
126
330
1F
100
AcDbEntity
  8
0
  6
Continuous
 62
     7
370
    15
100
AcDbLine
 10
3.3002605696
 20
4.6118328768
 30
0.0
 11
3.3002605696
 21
4.6217831418
 31
0.0
  0
LINE
  5
127
330
1F
100
AcDbEntity
  8
0
  6
Continuous
 62
     7
370
    15
100
AcDbLine
 10
3.2727105812
 20
4.700483126
 30
0.0
 11
3.3002605696
 21
4.700483126
 31
0.0
  0
LINE
  5
128
330
1F
100
AcDbEntity
  8
0
  6
Continuous
 62
     7
370
    15
100
AcDbLine
 10
3.3002605696
 20
4.6453831492
 30
0.0
 11
3.2727105812
 21
4.6453831492
 31
0.0
  0
LINE
  5
129
330
1F
100
AcDbEntity
  8
0
  6
Continuous
 62
     7
370
    15
100
AcDbLine
 10
3.2727105812
 20
4.6453831492
 30
0.0
 11
3.2727105812
 21
4.700483126
 31
0.0
  0
ARC
  5
12A
330
1F
100
AcDbEntity
  8
0
  6
Continuous
 62
     7
370
    15
100
AcDbCircle
 10
3.3002605937
 20
4.6728331549
 30
0.0
 40
0.0176997175118707
100
AcDbArc
 50
90.0
 51
270.0
  0
LINE
  5
12B
330
1F
100
AcDbEntity
  8
0
  6
Continuous
 62
     7
370
    15
100
AcDbLine
 10
3.3002605696
 20
4.690532861
 30
0.0
 11
3.3002605696
 21
4.700483126
 31
0.0
  0
LINE
  5
12C
330
1F
100
AcDbEntity
  8
0
  6
Continuous
 62
     7
370
    15
100
AcDbLine
 10
3.3002605696
 20
4.6453831492
 30
0.0
 11
3.3002605696
 21
4.6551334366
 31
0.0
  0
LINE
  5
12D
330
1F
100
AcDbEntity
  8
0
  6
Continuous
 62
     7
370
    15
100
AcDbLine
 10
3.1357606232
 20
4.6789331283
 30
0.0
 11
3.2622598219
 21
4.678933055
 31
0.0
  0
LINE
  5
12E
330
1F
100
AcDbEntity
  8
0
  6
Continuous
 62
     7
370
    15
100
AcDbLine
 10
3.1357615032
 20
3.6799340555
 30
0.0
 11
3.2622606285
 21
3.6799340555
 31
0.0
  0
LINE
  5
12F
330
1F
100
AcDbEntity
  8
0
  6
Continuous
 62
     7
370
    15
100
AcDbLine
 10
3.2262408846
 20
4.6389331904
 30
0.0
 11
3.1357606232
 21
4.6389331904
 31
0.0
  0
LINE
  5
130
330
1F
100
AcDbEntity
  8
0
  6
Continuous
 62
     7
370
    15
100
AcDbLine
 10
3.2622606285
 20
3.6799340555
 30
0.0
 11
3.2622598219
 21
4.678933055
 31
0.0
  0
LINE
  5
131
330
1F
100
AcDbEntity
  8
0
  6
Continuous
 62
     7
370
    15
100
AcDbLine
 10
3.1357589366
 20
3.7199322563
 30
0.0
 11
3.1357615032
 21
3.6799340555
 31
0.0
  0
LINE
  5
132
330
1F
100
AcDbEntity
  8
0
  6
Continuous
 62
     7
370
    15
100
AcDbLine
 10
3.1357589366
 20
3.7199322563
 30
0.0
 11
3.2262615644
 21
3.7199322563
 31
0.0
  0
LINE
  5
133
330
1F
100
AcDbEntity
  8
0
  6
Continuous
 62
     7
370
    15
100
AcDbLine
 10
3.2262408846
 20
4.6389331904
 30
0.0
 11
3.2262615644
 21
3.7199322563
 31
0.0
  0
LINE
  5
134
330
1F
100
AcDbEntity
  8
0
  6
Continuous
 62
     7
370
    15
100
AcDbLine
 10
3.1357606232
 20
4.6789331283
 30
0.0
 11
3.1357606232
 21
4.6389331904
 31
0.0
  0
LINE
  5
135
330
1F
100
AcDbEntity
  8
0
  6
Continuous
 62
     7
370
    15
100
AcDbLine
 10
3.2727105812
 20
4.7791831835
 30
0.0
 11
3.3003605951
 21
4.7791831835
 31
0.0
  0
LINE
  5
136
330
1F
100
AcDbEntity
  8
0
  6
Continuous
 62
     7
370
    15
100
AcDbLine
 10
3.3003605951
 20
4.7692326985
 30
0.0
 11
3.3003605951
 21
4.7791831835
 31
0.0
  0
LINE
  5
137
330
1F
100
AcDbEntity
  8
0
  6
Continuous
 62
     7
370
    15
100
AcDbLine
 10
3.3003605951
 20
4.7240831334
 30
0.0
 11
3.3003605951
 21
4.7338332741
 31
0.0
  0
LINE
  5
138
330
1F
100
AcDbEntity
  8
0
  6
Continuous
 62
     7
370
    15
100
AcDbLine
 10
3.3003605951
 20
4.7240831334
 30
0.0
 11
3.2727105812
 21
4.7240831334
 31
0.0
  0
LINE
  5
139
330
1F
100
AcDbEntity
  8
0
  6
Continuous
 62
     7
370
    15
100
AcDbLine
 10
3.2727105812
 20
4.7240831334
 30
0.0
 11
3.2727105812
 21
4.7791831835
 31
0.0
  0
ARC
  5
13A
330
1F
100
AcDbEntity
  8
0
  6
Continuous
 62
     7
370
    15
100
AcDbCircle
 10
3.3003605937
 20
4.7515330137
 30
0.0
 40
0.0176997175118707
100
AcDbArc
 50
90.0
 51
270.0
  0
LINE
  5
13B
330
1F
100
AcDbEntity
  8
0
  6
Continuous
 62
     7
370
    15
100
AcDbLine
 10
3.0887588262
 20
4.6389349503
 30
0.0
 11
2.8887606033
 21
4.6389349503
 31
0.0
  0
LINE
  5
13C
330
1F
100
AcDbEntity
  8
0
  6
Continuous
 62
     7
370
    15
100
AcDbLine
 10
2.8887606033
 20
4.6389349503
 30
0.0
 11
2.8887606033
 21
4.6789331283
 31
0.0
  0
LINE
  5
13D
330
1F
100
AcDbEntity
  8
0
  6
Continuous
 62
     7
370
    15
100
AcDbLine
 10
3.0887605862
 20
4.6789331283
 30
0.0
 11
3.0887588262
 21
4.6389349503
 31
0.0
  0
LINE
  5
13E
330
1F
100
AcDbEntity
  8
0
  6
Continuous
 62
     7
370
    15
100
AcDbLine
 10
3.0887605862
 20
4.6789331283
 30
0.0
 11
2.8887606033
 21
4.6789331283
 31
0.0
  0
LINE
  5
13F
330
1F
100
AcDbEntity
  8
0
  6
Continuous
 62
     7
370
    15
100
AcDbLine
 10
2.8437605998
 20
4.6789322483
 30
0.0
 11
2.8437588031
 21
4.6389340704
 31
0.0
  0
LINE
  5
140
330
1F
100
AcDbEntity
  8
0
  6
Continuous
 62
     7
370
    15
100
AcDbLine
 10
2.8437588031
 20
4.6389340704
 30
0.0
 11
2.6437605985
 21
4.6389340704
 31
0.0
  0
LINE
  5
141
330
1F
100
AcDbEntity
  8
0
  6
Continuous
 62
     7
370
    15
100
AcDbLine
 10
2.6437605985
 20
4.6389340704
 30
0.0
 11
2.6437605985
 21
4.6789322483
 31
0.0
  0
LINE
  5
142
330
1F
100
AcDbEntity
  8
0
  6
Continuous
 62
     7
370
    15
100
AcDbLine
 10
2.8437605998
 20
4.6789322483
 30
0.0
 11
2.6437605985
 21
4.6789322483
 31
0.0
  0
LINE
  5
143
330
1F
100
AcDbEntity
  8
0
  6
Continuous
 62
     7
370
    15
100
AcDbLine
 10
2.598760595
 20
4.6789331283
 30
0.0
 11
2.4722613941
 21
4.678933055
 31
0.0
  0
LINE
  5
144
330
1F
100
AcDbEntity
  8
0
  6
Continuous
 62
     7
370
    15
100
AcDbLine
 10
2.4722605943
 20
3.6799340555
 30
0.0
 11
2.4722613941
 21
4.678933055
 31
0.0
  0
LINE
  5
145
330
1F
100
AcDbEntity
  8
0
  6
Continuous
 62
     7
370
    15
100
AcDbLine
 10
2.5082605934
 20
4.6389331904
 30
0.0
 11
2.598760595
 21
4.6389331904
 31
0.0
  0
LINE
  5
146
330
1F
100
AcDbEntity
  8
0
  6
Continuous
 62
     7
370
    15
100
AcDbLine
 10
2.598760595
 20
4.6789331283
 30
0.0
 11
2.598760595
 21
4.6389331904
 31
0.0
  0
LINE
  5
147
330
1F
100
AcDbEntity
  8
0
  6
Continuous
 62
     7
370
    15
100
AcDbLine
 10
2.5082605934
 20
4.6389331904
 30
0.0
 11
2.5082605934
 21
3.7639322568
 31
0.0
  0
LINE
  5
148
330
1F
100
AcDbEntity
  8
0
  6
Continuous
 62
     7
370
    15
100
AcDbLine
 10
2.5082605934
 20
3.7639322568
 30
0.0
 11
2.5082596034
 21
3.7199322563
 31
0.0
  0
LINE
  5
149
330
1F
100
AcDbEntity
  8
0
  6
Continuous
 62
     7
370
    15
100
AcDbLine
 10
2.5987622633
 20
3.7199322563
 30
0.0
 11
2.5082596034
 21
3.7199322563
 31
0.0
  0
LINE
  5
14A
330
1F
100
AcDbEntity
  8
0
  6
Continuous
 62
     7
370
    15
100
AcDbLine
 10
2.5987622633
 20
3.7199322563
 30
0.0
 11
2.5987596967
 21
3.6799340555
 31
0.0
  0
LINE
  5
14B
330
1F
100
AcDbEntity
  8
0
  6
Continuous
 62
     7
370
    15
100
AcDbLine
 10
2.5987596967
 20
3.6799340555
 30
0.0
 11
2.4722605943
 21
3.6799340555
 31
0.0
  0
LINE
  5
14C
330
1F
100
AcDbEntity
  8
0
  6
Continuous
 62
     7
370
    15
100
AcDbLine
 10
2.4618105935
 20
4.6454831747
 30
0.0
 11
2.4342605937
 21
4.6454831747
 31
0.0
  0
LINE
  5
14D
330
1F
100
AcDbEntity
  8
0
  6
Continuous
 62
     7
370
    15
100
AcDbLine
 10
2.4618105935
 20
4.7005831515
 30
0.0
 11
2.4618105935
 21
4.6454831747
 31
0.0
  0
LINE
  5
14E
330
1F
100
AcDbEntity
  8
0
  6
Continuous
 62
     7
370
    15
100
AcDbLine
 10
2.4342605937
 20
4.7005831515
 30
0.0
 11
2.4618105935
 21
4.7005831515
 31
0.0
  0
ARC
  5
14F
330
1F
100
AcDbEntity
  8
0
  6
Continuous
 62
     7
370
    15
100
AcDbCircle
 10
2.4342605937
 20
4.6729331549
 30
0.0
 40
0.0176997175118707
100
AcDbArc
 50
270.0
 51
90.0
  0
LINE
  5
150
330
1F
100
AcDbEntity
  8
0
  6
Continuous
 62
     7
370
    15
100
AcDbLine
 10
2.4342605937
 20
4.7005831515
 30
0.0
 11
2.4342605937
 21
4.6906328865
 31
0.0
  0
LINE
  5
151
330
1F
100
AcDbEntity
  8
0
  6
Continuous
 62
     7
370
    15
100
AcDbLine
 10
2.4342605937
 20
4.6552334621
 30
0.0
 11
2.4342605937
 21
4.6454831747
 31
0.0
  0
LINE
  5
152
330
1F
100
AcDbEntity
  8
0
  6
Continuous
 62
     7
370
    15
100
AcDbLine
 10
3.3002605696
 20
4.9759332173
 30
0.0
 11
2.4342605937
 21
4.9759332173
 31
0.0
  0
LINE
  5
153
330
1F
100
AcDbEntity
  8
0
  6
Continuous
 62
     7
370
    15
100
AcDbLine
 10
3.3002605696
 20
4.9366831774
 30
0.0
 11
3.3002605696
 21
4.9759332173
 31
0.0
  0
LINE
  5
154
330
1F
100
AcDbEntity
  8
0
  6
Continuous
 62
     7
370
    15
100
AcDbLine
 10
3.3002605696
 20
4.8579831199
 30
0.0
 11
3.3002605696
 21
4.8815832006
 31
0.0
  0
LINE
  5
155
330
1F
100
AcDbEntity
  8
0
  6
Continuous
 62
     7
370
    15
100
AcDbLine
 10
3.3002605696
 20
4.7791831835
 30
0.0
 11
3.3002605696
 21
4.8028831431
 31
0.0
  0
LINE
  5
156
330
1F
100
AcDbEntity
  8
0
  6
Continuous
 62
     7
370
    15
100
AcDbLine
 10
3.1704105896
 20
3.6459331549
 30
0.0
 11
3.3002605696
 21
3.6459331549
 31
0.0
  0
LINE
  5
157
330
1F
100
AcDbEntity
  8
0
  6
Continuous
 62
     7
370
    15
100
AcDbLine
 10
3.0916105799
 20
3.6459331549
 30
0.0
 11
3.1153106128
 21
3.6459331549
 31
0.0
  0
LINE
  5
158
330
1F
100
AcDbEntity
  8
0
  6
Continuous
 62
     7
370
    15
100
AcDbLine
 10
3.0129105957
 20
3.6459331549
 30
0.0
 11
3.0365106031
 21
3.6459331549
 31
0.0
  0
LINE
  5
159
330
1F
100
AcDbEntity
  8
0
  6
Continuous
 62
     7
370
    15
100
AcDbLine
 10
2.9342106115
 20
3.6459331549
 30
0.0
 11
2.9578105822
 21
3.6459331549
 31
0.0
  0
LINE
  5
15A
330
1F
100
AcDbEntity
  8
0
  6
Continuous
 62
     7
370
    15
100
AcDbLine
 10
2.8554106018
 20
3.6459331549
 30
0.0
 11
2.8791105981
 21
3.6459331549
 31
0.0
  0
LINE
  5
15B
330
1F
100
AcDbEntity
  8
0
  6
Continuous
 62
     7
370
    15
100
AcDbLine
 10
2.776710581
 20
3.6459331549
 30
0.0
 11
2.8003105884
 21
3.6459331549
 31
0.0
  0
LINE
  5
15C
330
1F
100
AcDbEntity
  8
0
  6
Continuous
 62
     7
370
    15
100
AcDbLine
 10
2.6979105896
 20
3.6459331549
 30
0.0
 11
2.7216105858
 21
3.6459331549
 31
0.0
  0
LINE
  5
15D
330
1F
100
AcDbEntity
  8
0
  6
Continuous
 62
     7
370
    15
100
AcDbLine
 10
2.6192105871
 20
3.6459331549
 30
0.0
 11
2.6428105945
 21
3.6459331549
 31
0.0
  0
LINE
  5
15E
330
1F
100
AcDbEntity
  8
0
  6
Continuous
 62
     7
370
    15
100
AcDbLine
 10
2.4342605937
 20
3.6459331549
 30
0.0
 11
2.564110592
 21
3.6459331549
 31
0.0
  0
LINE
  5
15F
330
1F
100
AcDbEntity
  8
0
  6
Continuous
 62
     7
370
    15
100
AcDbLine
 10
2.4342605937
 20
3.7004831564
 30
0.0
 11
2.4342605937
 21
3.6459331549
 31
0.0
  0
LINE
  5
160
330
1F
100
AcDbEntity
  8
0
  6
Continuous
 62
     7
370
    15
100
AcDbLine
 10
2.4342605937
 20
3.779283157
 30
0.0
 11
2.4342605937
 21
3.7555831516
 31
0.0
  0
LINE
  5
161
330
1F
100
AcDbEntity
  8
0
  6
Continuous
 62
     7
370
    15
100
AcDbLine
 10
2.4342605937
 20
4.9759332173
 30
0.0
 11
2.4342605937
 21
4.7005831515
 31
0.0
  0
LINE
  5
162
330
1F
100
AcDbEntity
  8
0
  6
Continuous
 62
     7
370
    15
100
AcDbLine
 10
3.3002605696
 20
4.700483126
 30
0.0
 11
3.3002605696
 21
4.7240831334
 31
0.0
  0
LINE
  5
163
330
1F
100
AcDbEntity
  8
0
  6
Continuous
 62
     7
370
    15
100
AcDbLine
 10
3.3002605696
 20
4.5429831321
 30
0.0
 11
3.3002605696
 21
4.566683165
 31
0.0
  0
LINE
  5
164
330
1F
100
AcDbEntity
  8
0
  6
Continuous
 62
     7
370
    15
100
AcDbLine
 10
3.3002605696
 20
4.6217831418
 30
0.0
 11
3.3002605696
 21
4.6453831492
 31
0.0
  0
LINE
  5
165
330
1F
100
AcDbEntity
  8
0
  6
Continuous
 62
     7
370
    15
100
AcDbLine
 10
2.4342605937
 20
3.9366831528
 30
0.0
 11
2.4342605937
 21
3.9130831638
 31
0.0
  0
LINE
  5
166
330
1F
100
AcDbEntity
  8
0
  6
Continuous
 62
     7
370
    15
100
AcDbLine
 10
2.4342605937
 20
4.566683165
 30
0.0
 11
2.4342605937
 21
4.5429831321
 31
0.0
  0
LINE
  5
167
330
1F
100
AcDbEntity
  8
0
  6
Continuous
 62
     7
370
    15
100
AcDbLine
 10
2.4342605937
 20
4.4878831553
 30
0.0
 11
2.4342605937
 21
4.4642831479
 31
0.0
  0
LINE
  5
168
330
1F
100
AcDbEntity
  8
0
  6
Continuous
 62
     7
370
    15
100
AcDbLine
 10
2.4342605937
 20
4.4091831711
 30
0.0
 11
2.4342605937
 21
4.3854831382
 31
0.0
  0
LINE
  5
169
330
1F
100
AcDbEntity
  8
0
  6
Continuous
 62
     7
370
    15
100
AcDbLine
 10
2.4342605937
 20
4.3303831614
 30
0.0
 11
2.4342605937
 21
4.3067831541
 31
0.0
  0
LINE
  5
16A
330
1F
100
AcDbEntity
  8
0
  6
Continuous
 62
     7
370
    15
100
AcDbLine
 10
2.4342605937
 20
4.2516831406
 30
0.0
 11
2.4342605937
 21
4.2280831699
 31
0.0
  0
LINE
  5
16B
330
1F
100
AcDbEntity
  8
0
  6
Continuous
 62
     7
370
    15
100
AcDbLine
 10
2.4342605937
 20
4.1729831564
 30
0.0
 11
2.4342605937
 21
4.1492831602
 31
0.0
  0
LINE
  5
16C
330
1F
100
AcDbEntity
  8
0
  6
Continuous
 62
     7
370
    15
100
AcDbLine
 10
2.4342605937
 20
4.0941831467
 30
0.0
 11
2.4342605937
 21
4.0705831393
 31
0.0
  0
LINE
  5
16D
330
1F
100
AcDbEntity
  8
0
  6
Continuous
 62
     7
370
    15
100
AcDbLine
 10
3.3002605696
 20
3.6459331549
 30
0.0
 11
3.3002605696
 21
3.7004831564
 31
0.0
  0
LINE
  5
16E
330
1F
100
AcDbEntity
  8
0
  6
Continuous
 62
     7
370
    15
100
AcDbLine
 10
3.3002605696
 20
3.7555831516
 30
0.0
 11
3.3002605696
 21
3.779283157
 31
0.0
  0
LINE
  5
16F
330
1F
100
AcDbEntity
  8
0
  6
Continuous
 62
     7
370
    15
100
AcDbLine
 10
3.3002605696
 20
3.8343831613
 30
0.0
 11
3.3002605696
 21
3.8579831503
 31
0.0
  0
LINE
  5
170
330
1F
100
AcDbEntity
  8
0
  6
Continuous
 62
     7
370
    15
100
AcDbLine
 10
3.3002605696
 20
3.9130831638
 30
0.0
 11
3.3002605696
 21
3.9366831528
 31
0.0
  0
LINE
  5
171
330
1F
100
AcDbEntity
  8
0
  6
Continuous
 62
     7
370
    15
100
AcDbLine
 10
2.4342605937
 20
3.8579831503
 30
0.0
 11
2.4342605937
 21
3.8343831613
 31
0.0
  0
LINE
  5
172
330
1F
100
AcDbEntity
  8
0
  6
Continuous
 62
     7
370
    15
100
AcDbLine
 10
2.4342605937
 20
4.6454831747
 30
0.0
 11
2.4342605937
 21
4.6217831418
 31
0.0
  0
LINE
  5
173
330
1F
100
AcDbEntity
  8
0
  6
Continuous
 62
     7
370
    15
100
AcDbLine
 10
3.3002605696
 20
3.9917831663
 30
0.0
 11
3.3002605696
 21
4.0154831625
 31
0.0
  0
LINE
  5
174
330
1F
100
AcDbEntity
  8
0
  6
Continuous
 62
     7
370
    15
100
AcDbLine
 10
3.3002605696
 20
4.0705831393
 30
0.0
 11
3.3002605696
 21
4.0941831467
 31
0.0
  0
LINE
  5
175
330
1F
100
AcDbEntity
  8
0
  6
Continuous
 62
     7
370
    15
100
AcDbLine
 10
3.3002605696
 20
4.1492831602
 30
0.0
 11
3.3002605696
 21
4.1729831564
 31
0.0
  0
LINE
  5
176
330
1F
100
AcDbEntity
  8
0
  6
Continuous
 62
     7
370
    15
100
AcDbLine
 10
3.3002605696
 20
4.2280831699
 30
0.0
 11
3.3002605696
 21
4.2516831406
 31
0.0
  0
LINE
  5
177
330
1F
100
AcDbEntity
  8
0
  6
Continuous
 62
     7
370
    15
100
AcDbLine
 10
3.3002605696
 20
4.3067831541
 30
0.0
 11
3.3002605696
 21
4.3303831614
 31
0.0
  0
LINE
  5
178
330
1F
100
AcDbEntity
  8
0
  6
Continuous
 62
     7
370
    15
100
AcDbLine
 10
2.4342605937
 20
4.0154831625
 30
0.0
 11
2.4342605937
 21
3.9917831663
 31
0.0
  0
LINE
  5
179
330
1F
100
AcDbEntity
  8
0
  6
Continuous
 62
     7
370
    15
100
AcDbLine
 10
3.3002605696
 20
4.3854831382
 30
0.0
 11
3.3002605696
 21
4.4091831711
 31
0.0
  0
LINE
  5
17A
330
1F
100
AcDbEntity
  8
0
  6
Continuous
 62
     7
370
    15
100
AcDbLine
 10
3.3002605696
 20
4.4642831479
 30
0.0
 11
3.3002605696
 21
4.4878831553
 31
0.0
  0
LINE
  5
17B
330
1F
100
AcDbEntity
  8
0
  6
Continuous
 62
     7
370
    15
100
AcDbLine
 10
3.3003605951
 20
4.8028831431
 30
0.0
 11
3.3003605951
 21
4.8028331303
 31
0.0
  0
LINE
  5
17C
330
1F
100
AcDbEntity
  8
0
  6
Continuous
 62
     7
370
    15
100
AcDbLine
 10
3.3003605951
 20
4.8028331303
 30
0.0
 11
3.3002605696
 21
4.8028331303
 31
0.0
  0
LINE
  5
17D
330
1F
100
AcDbEntity
  8
0
  6
Continuous
 62
     7
370
    15
100
AcDbLine
 10
2.6192605999
 20
3.6458331549
 30
0.0
 11
2.6192105871
 21
3.6458331549
 31
0.0
  0
LINE
  5
17E
330
1F
100
AcDbEntity
  8
0
  6
Continuous
 62
     7
370
    15
100
AcDbLine
 10
2.6192605999
 20
3.6459331549
 30
0.0
 11
2.6192605999
 21
3.6458331549
 31
0.0
  0
LINE
  5
17F
330
1F
100
AcDbEntity
  8
0
  6
Continuous
 62
     7
370
    15
100
AcDbLine
 10
3.3003605951
 20
4.8815832006
 30
0.0
 11
3.3003605951
 21
4.8815331878
 31
0.0
  0
LINE
  5
180
330
1F
100
AcDbEntity
  8
0
  6
Continuous
 62
     7
370
    15
100
AcDbLine
 10
3.3003605951
 20
4.8815331878
 30
0.0
 11
3.3002605696
 21
4.8815331878
 31
0.0
  0
LINE
  5
181
330
1F
100
AcDbEntity
  8
0
  6
Continuous
 62
     7
370
    15
100
AcDbLine
 10
2.6979606024
 20
3.6458331549
 30
0.0
 11
2.6979105896
 21
3.6458331549
 31
0.0
  0
LINE
  5
182
330
1F
100
AcDbEntity
  8
0
  6
Continuous
 62
     7
370
    15
100
AcDbLine
 10
2.6979606024
 20
3.6459331549
 30
0.0
 11
2.6979606024
 21
3.6458331549
 31
0.0
  0
LINE
  5
183
330
1F
100
AcDbEntity
  8
0
  6
Continuous
 62
     7
370
    15
100
AcDbLine
 10
2.7767605938
 20
3.6458331549
 30
0.0
 11
2.776710581
 21
3.6458331549
 31
0.0
  0
LINE
  5
184
330
1F
100
AcDbEntity
  8
0
  6
Continuous
 62
     7
370
    15
100
AcDbLine
 10
2.7767605938
 20
3.6459331549
 30
0.0
 11
2.7767605938
 21
3.6458331549
 31
0.0
  0
LINE
  5
185
330
1F
100
AcDbEntity
  8
0
  6
Continuous
 62
     7
370
    15
100
AcDbLine
 10
2.8554605779
 20
3.6458331549
 30
0.0
 11
2.8554106018
 21
3.6458331549
 31
0.0
  0
LINE
  5
186
330
1F
100
AcDbEntity
  8
0
  6
Continuous
 62
     7
370
    15
100
AcDbLine
 10
2.8554605779
 20
3.6459331549
 30
0.0
 11
2.8554605779
 21
3.6458331549
 31
0.0
  0
LINE
  5
187
330
1F
100
AcDbEntity
  8
0
  6
Continuous
 62
     7
370
    15
100
AcDbLine
 10
2.9342605876
 20
3.6458331549
 30
0.0
 11
2.9342106115
 21
3.6458331549
 31
0.0
  0
LINE
  5
188
330
1F
100
AcDbEntity
  8
0
  6
Continuous
 62
     7
370
    15
100
AcDbLine
 10
2.9342605876
 20
3.6459331549
 30
0.0
 11
2.9342605876
 21
3.6458331549
 31
0.0
  0
LINE
  5
189
330
1F
100
AcDbEntity
  8
0
  6
Continuous
 62
     7
370
    15
100
AcDbLine
 10
3.0129606085
 20
3.6458331549
 30
0.0
 11
3.0129105957
 21
3.6458331549
 31
0.0
  0
LINE
  5
18A
330
1F
100
AcDbEntity
  8
0
  6
Continuous
 62
     7
370
    15
100
AcDbLine
 10
3.0129606085
 20
3.6459331549
 30
0.0
 11
3.0129606085
 21
3.6458331549
 31
0.0
  0
LINE
  5
18B
330
1F
100
AcDbEntity
  8
0
  6
Continuous
 62
     7
370
    15
100
AcDbLine
 10
3.0916605927
 20
3.6458331549
 30
0.0
 11
3.0916105799
 21
3.6458331549
 31
0.0
  0
LINE
  5
18C
330
1F
100
AcDbEntity
  8
0
  6
Continuous
 62
     7
370
    15
100
AcDbLine
 10
3.0916605927
 20
3.6459331549
 30
0.0
 11
3.0916605927
 21
3.6458331549
 31
0.0
  0
LINE
  5
18D
330
1F
100
AcDbEntity
  8
0
  6
Continuous
 62
     7
370
    15
100
AcDbLine
 10
3.3003605951
 20
4.7240831334
 30
0.0
 11
3.3003605951
 21
4.7240330473
 31
0.0
  0
LINE
  5
18E
330
1F
100
AcDbEntity
  8
0
  6
Continuous
 62
     7
370
    15
100
AcDbLine
 10
3.3003605951
 20
4.7240330473
 30
0.0
 11
3.3002605696
 21
4.7240330473
 31
0.0
  0
LINE
  5
18F
330
1F
100
AcDbEntity
  8
0
  6
Continuous
 62
     7
370
    15
100
AcDbLine
 10
3.1704606024
 20
3.6458331549
 30
0.0
 11
3.1704105896
 21
3.6458331549
 31
0.0
  0
LINE
  5
190
330
1F
100
AcDbEntity
  8
0
  6
Continuous
 62
     7
370
    15
100
AcDbLine
 10
3.1704606024
 20
3.6459331549
 30
0.0
 11
3.1704606024
 21
3.6458331549
 31
0.0
  0
DIMENSION
  5
191
330
1F
100
AcDbEntity
  8
SLD-0
100
AcDbDimension
  2
_D
 10
2.4342605937
 20
5.4746108125
 30
0.0
 11
2.8725915215
 21
5.4746108125
 31
0.0
 70
   160
  1
(<>)
 71
     2
 42
-1.0
  3
SLDDIMSTYLE0
100
AcDbAlignedDimension
 13
3.3002605937
 23
4.9759331549
 33
0.0
 14
2.4342605937
 24
4.9759331549
 34
0.0
100
AcDbRotatedDimension
  0
DIMENSION
  5
1A1
330
1F
100
AcDbEntity
  8
SLD-0
100
AcDbDimension
  2
_D_1
 10
1.8043393338
 20
4.9759331549
 30
0.0
 11
1.8043393338
 21
4.3313448418
 31
0.0
 70
   160
  1
(<>)
 71
     2
 42
-1.0
  3
SLDDIMSTYLE1
100
AcDbAlignedDimension
 13
2.4342605937
 23
3.6459331549
 33
0.0
 14
2.4342605937
 24
4.9759331549
 34
0.0
 50
90.0
100
AcDbRotatedDimension
  0
DIMENSION
  5
1AE
330
1F
100
AcDbEntity
  8
SLD-0
100
AcDbDimension
  2
_D_2
 10
3.3002605937
 20
5.1763879355
 30
0.0
 11
2.8725915215
 21
5.1763879355
 31
0.0
 70
   160
  1
(<>)
 71
     2
 42
-1.0
  3
SLDDIMSTYLE0
100
AcDbAlignedDimension
 13
3.2727105937
 23
4.9366831549
 33
0.0
 14
3.3002605937
 24
4.9759331549
 34
0.0
100
AcDbRotatedDimension
  0
DIMENSION
  5
1BC
330
1F
100
AcDbEntity
  8
SLD-0
100
AcDbDimension
  2
_D_3
 10
3.1429605937
 20
3.2521323675
 30
0.0
 11
2.74276403
 21
3.2521323675
 31
0.0
 70
   160
  1
(<>)
 71
     2
 42
-1.0
  3
SLDDIMSTYLE0
100
AcDbAlignedDimension
 13
3.3002605937
 23
3.6459331549
 33
0.0
 14
3.1429605937
 24
3.6458331549
 34
0.0
 50
0.0
100
AcDbRotatedDimension
  0
DIMENSION
  5
1CA
330
1F
100
AcDbEntity
  8
SLD-0
100
AcDbDimension
  2
_D_4
 10
2.0882045208
 20
3.7279331549
 30
0.0
 11
2.0882045208
 21
4.2096911879
 31
0.0
 70
   160
  1
(<>)
 71
     2
 42
-1.0
  3
SLDDIMSTYLE0
100
AcDbAlignedDimension
 13
2.4342605937
 23
3.6459331549
 33
0.0
 14
2.4342605937
 24
3.7279331549
 34
0.0
 50
90.0
100
AcDbRotatedDimension
  0
DIMENSION
  5
1D8
330
1F
100
AcDbEntity
  8
SLD-0
100
AcDbDimension
  2
_D_5
 10
3.9302818535
 20
3.9366831549
 30
0.0
 11
3.9302818535
 21
3.4549721458
 31
0.0
 70
   160
  1
(<>)
 71
     2
 42
-1.0
  3
SLDDIMSTYLE0
100
AcDbAlignedDimension
 13
3.3002605937
 23
3.9917831549
 33
0.0
 14
3.3002605937
 24
3.9366831549
 34
0.0
 50
90.0
100
AcDbRotatedDimension
  0
DIMENSION
  5
1E6
330
1F
100
AcDbEntity
  8
SLD-0
100
AcDbDimension
  2
_D_6
 10
3.6329184989
 20
4.7511104489
 30
0.0
 11
3.6323851236
 21
4.3313448418
 31
0.0
 70
   160
  1
(<>)
 71
     2
 42
-1.0
  3
SLDDIMSTYLE0
100
AcDbAlignedDimension
 13
3.3002605937
 23
4.6728331549
 33
0.0
 14
3.3003605937
 24
4.7515330137
 34
0.0
 50
89.9271971391
100
AcDbRotatedDimension
  0
LINE
  5
1F4
330
1F
100
AcDbEntity
  8
0
  6
Continuous
 62
     7
370
    15
100
AcDbLine
 10
5.2548486393
 20
4.891333488
 30
0.0
 11
5.2555486392
 21
4.891333488
 31
0.0
  0
LINE
  5
1F5
330
1F
100
AcDbEntity
  8
0
  6
Continuous
 62
     7
370
    15
100
AcDbLine
 10
5.2548486393
 20
4.926732839
 30
0.0
 11
5.2548486393
 21
4.891333488
 31
0.0
  0
LINE
  5
1F6
330
1F
100
AcDbEntity
  8
0
  6
Continuous
 62
     7
370
    15
100
AcDbLine
 10
5.2548486393
 20
4.926732839
 30
0.0
 11
5.2555486392
 21
4.926732839
 31
0.0
  0
LINE
  5
1F7
330
1F
100
AcDbEntity
  8
0
  6
Continuous
 62
     7
370
    15
100
AcDbLine
 10
5.2555486392
 20
4.9267325457
 30
0.0
 11
5.2955486413
 21
4.926732839
 31
0.0
  0
LINE
  5
1F8
330
1F
100
AcDbEntity
  8
0
  6
Continuous
 62
     7
370
    15
100
AcDbLine
 10
5.2962486412
 20
4.9267331323
 30
0.0
 11
5.2955486413
 21
4.9267331323
 31
0.0
  0
LINE
  5
1F9
330
1F
100
AcDbEntity
  8
0
  6
Continuous
 62
     7
370
    15
100
AcDbLine
 10
5.2962486412
 20
4.9267331323
 30
0.0
 11
5.2962486412
 21
4.8913331946
 31
0.0
  0
LINE
  5
1FA
330
1F
100
AcDbEntity
  8
0
  6
Continuous
 62
     7
370
    15
100
AcDbLine
 10
5.2962486412
 20
4.8913331946
 30
0.0
 11
5.2955486413
 21
4.8913331946
 31
0.0
  0
LINE
  5
1FB
330
1F
100
AcDbEntity
  8
0
  6
Continuous
 62
     7
370
    15
100
AcDbLine
 10
5.2955486413
 20
4.891333488
 30
0.0
 11
5.2555486392
 21
4.891333488
 31
0.0
  0
LINE
  5
1FC
330
1F
100
AcDbEntity
  8
0
  6
Continuous
 62
     7
370
    15
100
AcDbLine
 10
5.2548486393
 20
4.9366831774
 30
0.0
 11
5.2555486392
 21
4.9366831774
 31
0.0
  0
LINE
  5
1FD
330
1F
100
AcDbEntity
  8
0
  6
Continuous
 62
     7
370
    15
100
AcDbLine
 10
5.2555486392
 20
4.926732839
 30
0.0
 11
5.2555486392
 21
4.9366831774
 31
0.0
  0
LINE
  5
1FE
330
1F
100
AcDbEntity
  8
0
  6
Continuous
 62
     7
370
    15
100
AcDbLine
 10
5.2548486393
 20
4.926732839
 30
0.0
 11
5.2548486393
 21
4.9366831774
 31
0.0
  0
LINE
  5
1FF
330
1F
100
AcDbEntity
  8
0
  6
Continuous
 62
     7
370
    15
100
AcDbLine
 10
5.2548486393
 20
4.7338332741
 30
0.0
 11
5.2555486392
 21
4.7338332741
 31
0.0
  0
LINE
  5
200
330
1F
100
AcDbEntity
  8
0
  6
Continuous
 62
     7
370
    15
100
AcDbLine
 10
5.2548486393
 20
4.7692326985
 30
0.0
 11
5.2548486393
 21
4.7338332741
 31
0.0
  0
LINE
  5
201
330
1F
100
AcDbEntity
  8
0
  6
Continuous
 62
     7
370
    15
100
AcDbLine
 10
5.2548486393
 20
4.7692326985
 30
0.0
 11
5.2555486392
 21
4.7692326985
 31
0.0
  0
LINE
  5
202
330
1F
100
AcDbEntity
  8
0
  6
Continuous
 62
     7
370
    15
100
AcDbLine
 10
5.2555486392
 20
4.7692324785
 30
0.0
 11
5.2955486413
 21
4.7692326251
 31
0.0
  0
LINE
  5
203
330
1F
100
AcDbEntity
  8
0
  6
Continuous
 62
     7
370
    15
100
AcDbLine
 10
5.2955486413
 20
4.7692326251
 30
0.0
 11
5.2955486413
 21
4.7692329918
 31
0.0
  0
LINE
  5
204
330
1F
100
AcDbEntity
  8
0
  6
Continuous
 62
     7
370
    15
100
AcDbLine
 10
5.2962486412
 20
4.7692329918
 30
0.0
 11
5.2955486413
 21
4.7692329918
 31
0.0
  0
LINE
  5
205
330
1F
100
AcDbEntity
  8
0
  6
Continuous
 62
     7
370
    15
100
AcDbLine
 10
5.2962486412
 20
4.7692329918
 30
0.0
 11
5.2962486412
 21
4.7338329807
 31
0.0
  0
LINE
  5
206
330
1F
100
AcDbEntity
  8
0
  6
Continuous
 62
     7
370
    15
100
AcDbLine
 10
5.2962486412
 20
4.7338329807
 30
0.0
 11
5.2955486413
 21
4.7338329807
 31
0.0
  0
LINE
  5
207
330
1F
100
AcDbEntity
  8
0
  6
Continuous
 62
     7
370
    15
100
AcDbLine
 10
5.2955486413
 20
4.7338332741
 30
0.0
 11
5.2555486392
 21
4.7338334207
 31
0.0
  0
LINE
  5
208
330
1F
100
AcDbEntity
  8
0
  6
Continuous
 62
     7
370
    15
100
AcDbLine
 10
5.2548486393
 20
4.8126334304
 30
0.0
 11
5.2555486392
 21
4.8126334304
 31
0.0
  0
LINE
  5
209
330
1F
100
AcDbEntity
  8
0
  6
Continuous
 62
     7
370
    15
100
AcDbLine
 10
5.2548486393
 20
4.8480328548
 30
0.0
 11
5.2548486393
 21
4.8126334304
 31
0.0
  0
LINE
  5
20A
330
1F
100
AcDbEntity
  8
0
  6
Continuous
 62
     7
370
    15
100
AcDbLine
 10
5.2548486393
 20
4.8480328548
 30
0.0
 11
5.2555486392
 21
4.8480328548
 31
0.0
  0
LINE
  5
20B
330
1F
100
AcDbEntity
  8
0
  6
Continuous
 62
     7
370
    15
100
AcDbLine
 10
5.2555486392
 20
4.8480325615
 30
0.0
 11
5.2955486413
 21
4.8480328548
 31
0.0
  0
LINE
  5
20C
330
1F
100
AcDbEntity
  8
0
  6
Continuous
 62
     7
370
    15
100
AcDbLine
 10
5.2962486412
 20
4.8480331482
 30
0.0
 11
5.2955486413
 21
4.8480331482
 31
0.0
  0
LINE
  5
20D
330
1F
100
AcDbEntity
  8
0
  6
Continuous
 62
     7
370
    15
100
AcDbLine
 10
5.2962486412
 20
4.8480331482
 30
0.0
 11
5.2962486412
 21
4.8126331371
 31
0.0
  0
LINE
  5
20E
330
1F
100
AcDbEntity
  8
0
  6
Continuous
 62
     7
370
    15
100
AcDbLine
 10
5.2962486412
 20
4.8126331371
 30
0.0
 11
5.2955486413
 21
4.8126331371
 31
0.0
  0
LINE
  5
20F
330
1F
100
AcDbEntity
  8
0
  6
Continuous
 62
     7
370
    15
100
AcDbLine
 10
5.2955486413
 20
4.8126334304
 30
0.0
 11
5.2555486392
 21
4.8126334304
 31
0.0
  0
LINE
  5
210
330
1F
100
AcDbEntity
  8
0
  6
Continuous
 62
     7
370
    15
100
AcDbLine
 10
5.2548486393
 20
4.7692326985
 30
0.0
 11
5.2548486393
 21
4.7791831835
 31
0.0
  0
LINE
  5
211
330
1F
100
AcDbEntity
  8
0
  6
Continuous
 62
     7
370
    15
100
AcDbLine
 10
5.2548486393
 20
4.7791831835
 30
0.0
 11
5.2555486392
 21
4.7791831835
 31
0.0
  0
LINE
  5
212
330
1F
100
AcDbEntity
  8
0
  6
Continuous
 62
     7
370
    15
100
AcDbLine
 10
5.2555486392
 20
4.7692326985
 30
0.0
 11
5.2555486392
 21
4.7791831835
 31
0.0
  0
LINE
  5
213
330
1F
100
AcDbEntity
  8
0
  6
Continuous
 62
     7
370
    15
100
AcDbLine
 10
5.2548486393
 20
4.8480328548
 30
0.0
 11
5.2548486393
 21
4.8579831199
 31
0.0
  0
LINE
  5
214
330
1F
100
AcDbEntity
  8
0
  6
Continuous
 62
     7
370
    15
100
AcDbLine
 10
5.2548486393
 20
4.8579831199
 30
0.0
 11
5.2555486392
 21
4.8579831199
 31
0.0
  0
LINE
  5
215
330
1F
100
AcDbEntity
  8
0
  6
Continuous
 62
     7
370
    15
100
AcDbLine
 10
5.2555486392
 20
4.8480328548
 30
0.0
 11
5.2555486392
 21
4.8579831199
 31
0.0
  0
LINE
  5
216
330
1F
100
AcDbEntity
  8
0
  6
Continuous
 62
     7
370
    15
100
AcDbLine
 10
5.2962486412
 20
4.8126331371
 30
0.0
 11
5.2962486412
 21
4.8028331303
 31
0.0
  0
LINE
  5
217
330
1F
100
AcDbEntity
  8
0
  6
Continuous
 62
     7
370
    15
100
AcDbLine
 10
5.2962486412
 20
4.8028331303
 30
0.0
 11
5.2955486413
 21
4.8028331303
 31
0.0
  0
LINE
  5
218
330
1F
100
AcDbEntity
  8
0
  6
Continuous
 62
     7
370
    15
100
AcDbLine
 10
5.2955486413
 20
4.8126331371
 30
0.0
 11
5.2955486413
 21
4.8028331303
 31
0.0
  0
LINE
  5
219
330
1F
100
AcDbEntity
  8
0
  6
Continuous
 62
     7
370
    15
100
AcDbLine
 10
5.2962486412
 20
4.8913331946
 30
0.0
 11
5.2962486412
 21
4.8815331878
 31
0.0
  0
LINE
  5
21A
330
1F
100
AcDbEntity
  8
0
  6
Continuous
 62
     7
370
    15
100
AcDbLine
 10
5.2962486412
 20
4.8815331878
 30
0.0
 11
5.2955486413
 21
4.8815331878
 31
0.0
  0
LINE
  5
21B
330
1F
100
AcDbEntity
  8
0
  6
Continuous
 62
     7
370
    15
100
AcDbLine
 10
5.2955486413
 20
4.8913331946
 30
0.0
 11
5.2955486413
 21
4.8815331878
 31
0.0
  0
LINE
  5
21C
330
1F
100
AcDbEntity
  8
0
  6
Continuous
 62
     7
370
    15
100
AcDbLine
 10
5.2962486412
 20
4.7338329807
 30
0.0
 11
5.2962486412
 21
4.7240330473
 31
0.0
  0
LINE
  5
21D
330
1F
100
AcDbEntity
  8
0
  6
Continuous
 62
     7
370
    15
100
AcDbLine
 10
5.2955486413
 20
4.7338329807
 30
0.0
 11
5.2955486413
 21
4.7240330473
 31
0.0
  0
LINE
  5
21E
330
1F
100
AcDbEntity
  8
0
  6
Continuous
 62
     7
370
    15
100
AcDbLine
 10
5.2962486412
 20
4.7240330473
 30
0.0
 11
5.2955486413
 21
4.7240330473
 31
0.0
  0
LINE
  5
21F
330
1F
100
AcDbEntity
  8
0
  6
Continuous
 62
     7
370
    15
100
AcDbLine
 10
5.2548486393
 20
4.8815832006
 30
0.0
 11
5.2555486392
 21
4.8815832006
 31
0.0
  0
LINE
  5
220
330
1F
100
AcDbEntity
  8
0
  6
Continuous
 62
     7
370
    15
100
AcDbLine
 10
5.2555486392
 20
4.8815832006
 30
0.0
 11
5.2555486392
 21
4.891333488
 31
0.0
  0
LINE
  5
221
330
1F
100
AcDbEntity
  8
0
  6
Continuous
 62
     7
370
    15
100
AcDbLine
 10
5.2548486393
 20
4.8815832006
 30
0.0
 11
5.2548486393
 21
4.891333488
 31
0.0
  0
LINE
  5
222
330
1F
100
AcDbEntity
  8
0
  6
Continuous
 62
     7
370
    15
100
AcDbLine
 10
5.2962486412
 20
4.7790329986
 30
0.0
 11
5.2955486413
 21
4.7790329986
 31
0.0
  0
LINE
  5
223
330
1F
100
AcDbEntity
  8
0
  6
Continuous
 62
     7
370
    15
100
AcDbLine
 10
5.2955486413
 20
4.7790329986
 30
0.0
 11
5.2955486413
 21
4.7692329918
 31
0.0
  0
LINE
  5
224
330
1F
100
AcDbEntity
  8
0
  6
Continuous
 62
     7
370
    15
100
AcDbLine
 10
5.2962486412
 20
4.7790329986
 30
0.0
 11
5.2962486412
 21
4.7692329918
 31
0.0
  0
LINE
  5
225
330
1F
100
AcDbEntity
  8
0
  6
Continuous
 62
     7
370
    15
100
AcDbLine
 10
5.2555486392
 20
4.7240831334
 30
0.0
 11
5.2555486392
 21
4.7338332741
 31
0.0
  0
LINE
  5
226
330
1F
100
AcDbEntity
  8
0
  6
Continuous
 62
     7
370
    15
100
AcDbLine
 10
5.2548486393
 20
4.7240831334
 30
0.0
 11
5.2555486392
 21
4.7240831334
 31
0.0
  0
LINE
  5
227
330
1F
100
AcDbEntity
  8
0
  6
Continuous
 62
     7
370
    15
100
AcDbLine
 10
5.2548486393
 20
4.7240831334
 30
0.0
 11
5.2548486393
 21
4.7338332741
 31
0.0
  0
LINE
  5
228
330
1F
100
AcDbEntity
  8
0
  6
Continuous
 62
     7
370
    15
100
AcDbLine
 10
5.2955486413
 20
4.857833155
 30
0.0
 11
5.2955486413
 21
4.8480331482
 31
0.0
  0
LINE
  5
229
330
1F
100
AcDbEntity
  8
0
  6
Continuous
 62
     7
370
    15
100
AcDbLine
 10
5.2962486412
 20
4.857833155
 30
0.0
 11
5.2955486413
 21
4.857833155
 31
0.0
  0
LINE
  5
22A
330
1F
100
AcDbEntity
  8
0
  6
Continuous
 62
     7
370
    15
100
AcDbLine
 10
5.2962486412
 20
4.857833155
 30
0.0
 11
5.2962486412
 21
4.8480331482
 31
0.0
  0
LINE
  5
22B
330
1F
100
AcDbEntity
  8
0
  6
Continuous
 62
     7
370
    15
100
AcDbLine
 10
5.2555486392
 20
4.8028831431
 30
0.0
 11
5.2555486392
 21
4.8126334304
 31
0.0
  0
LINE
  5
22C
330
1F
100
AcDbEntity
  8
0
  6
Continuous
 62
     7
370
    15
100
AcDbLine
 10
5.2548486393
 20
4.8028831431
 30
0.0
 11
5.2555486392
 21
4.8028831431
 31
0.0
  0
LINE
  5
22D
330
1F
100
AcDbEntity
  8
0
  6
Continuous
 62
     7
370
    15
100
AcDbLine
 10
5.2548486393
 20
4.8028831431
 30
0.0
 11
5.2548486393
 21
4.8126334304
 31
0.0
  0
LINE
  5
22E
330
1F
100
AcDbEntity
  8
0
  6
Continuous
 62
     7
370
    15
100
AcDbLine
 10
5.2962486412
 20
4.9365331391
 30
0.0
 11
5.2955486413
 21
4.9365331391
 31
0.0
  0
LINE
  5
22F
330
1F
100
AcDbEntity
  8
0
  6
Continuous
 62
     7
370
    15
100
AcDbLine
 10
5.2955486413
 20
4.9365331391
 30
0.0
 11
5.2955486413
 21
4.9267331323
 31
0.0
  0
LINE
  5
230
330
1F
100
AcDbEntity
  8
0
  6
Continuous
 62
     7
370
    15
100
AcDbLine
 10
5.2962486412
 20
4.9365331391
 30
0.0
 11
5.2962486412
 21
4.9267331323
 31
0.0
  0
LINE
  5
231
330
1F
100
AcDbEntity
  8
0
  6
Continuous
 62
     7
370
    15
100
AcDbLine
 10
5.2555486392
 20
4.9366831774
 30
0.0
 11
5.2555486392
 21
4.9759332173
 31
0.0
  0
LINE
  5
232
330
1F
100
AcDbEntity
  8
0
  6
Continuous
 62
     7
370
    15
100
AcDbLine
 10
5.2555486392
 20
4.9759332173
 30
0.0
 11
5.2955486413
 21
4.9759332173
 31
0.0
  0
LINE
  5
233
330
1F
100
AcDbEntity
  8
0
  6
Continuous
 62
     7
370
    15
100
AcDbLine
 10
5.2955486413
 20
4.9365331391
 30
0.0
 11
5.2955486413
 21
4.9759332173
 31
0.0
  0
LINE
  5
234
330
1F
100
AcDbEntity
  8
0
  6
Continuous
 62
     7
370
    15
100
AcDbLine
 10
5.2555486392
 20
4.8579831199
 30
0.0
 11
5.2555486392
 21
4.8815832006
 31
0.0
  0
LINE
  5
235
330
1F
100
AcDbEntity
  8
0
  6
Continuous
 62
     7
370
    15
100
AcDbLine
 10
5.2955486413
 20
4.857833155
 30
0.0
 11
5.2955486413
 21
4.8815331878
 31
0.0
  0
LINE
  5
236
330
1F
100
AcDbEntity
  8
0
  6
Continuous
 62
     7
370
    15
100
AcDbLine
 10
5.2555486392
 20
4.7791831835
 30
0.0
 11
5.2555486392
 21
4.8028831431
 31
0.0
  0
LINE
  5
237
330
1F
100
AcDbEntity
  8
0
  6
Continuous
 62
     7
370
    15
100
AcDbLine
 10
5.2955486413
 20
4.7790329986
 30
0.0
 11
5.2955486413
 21
4.8028331303
 31
0.0
  0
LINE
  5
238
330
1F
100
AcDbEntity
  8
0
  6
Continuous
 62
     7
370
    15
100
AcDbLine
 10
5.2962486412
 20
4.6118331701
 30
0.0
 11
5.2962486412
 21
4.576433159
 31
0.0
  0
LINE
  5
239
330
1F
100
AcDbEntity
  8
0
  6
Continuous
 62
     7
370
    15
100
AcDbLine
 10
5.2962486412
 20
4.576433159
 30
0.0
 11
5.2548486393
 21
4.5764334524
 31
0.0
  0
LINE
  5
23A
330
1F
100
AcDbEntity
  8
0
  6
Continuous
 62
     7
370
    15
100
AcDbLine
 10
5.2548486393
 20
4.6118328768
 30
0.0
 11
5.2548486393
 21
4.5764334524
 31
0.0
  0
LINE
  5
23B
330
1F
100
AcDbEntity
  8
0
  6
Continuous
 62
     7
370
    15
100
AcDbLine
 10
5.2962486412
 20
4.6118331701
 30
0.0
 11
5.2548486393
 21
4.6118328768
 31
0.0
  0
LINE
  5
23C
330
1F
100
AcDbEntity
  8
0
  6
Continuous
 62
     7
370
    15
100
AcDbLine
 10
5.2548486393
 20
4.6118328768
 30
0.0
 11
5.2548486393
 21
4.6217831418
 31
0.0
  0
LINE
  5
23D
330
1F
100
AcDbEntity
  8
0
  6
Continuous
 62
     7
370
    15
100
AcDbLine
 10
5.2548486393
 20
4.6217831418
 30
0.0
 11
5.2555486392
 21
4.6217831418
 31
0.0
  0
LINE
  5
23E
330
1F
100
AcDbEntity
  8
0
  6
Continuous
 62
     7
370
    15
100
AcDbLine
 10
5.2555486392
 20
4.6217831418
 30
0.0
 11
5.2555486392
 21
4.6453831492
 31
0.0
  0
LINE
  5
23F
330
1F
100
AcDbEntity
  8
0
  6
Continuous
 62
     7
370
    15
100
AcDbLine
 10
5.2548486393
 20
4.6453831492
 30
0.0
 11
5.2555486392
 21
4.6453831492
 31
0.0
  0
LINE
  5
240
330
1F
100
AcDbEntity
  8
0
  6
Continuous
 62
     7
370
    15
100
AcDbLine
 10
5.2548486393
 20
4.6453831492
 30
0.0
 11
5.2548486393
 21
4.6551334366
 31
0.0
  0
LINE
  5
241
330
1F
100
AcDbEntity
  8
0
  6
Continuous
 62
     7
370
    15
100
AcDbLine
 10
5.2962486412
 20
4.6551331432
 30
0.0
 11
5.2548486393
 21
4.6551334366
 31
0.0
  0
LINE
  5
242
330
1F
100
AcDbEntity
  8
0
  6
Continuous
 62
     7
370
    15
100
AcDbLine
 10
5.2962486412
 20
4.6551331432
 30
0.0
 11
5.2962486412
 21
4.6453331364
 31
0.0
  0
LINE
  5
243
330
1F
100
AcDbEntity
  8
0
  6
Continuous
 62
     7
370
    15
100
AcDbLine
 10
5.2962486412
 20
4.6453331364
 30
0.0
 11
5.2955486413
 21
4.6453331364
 31
0.0
  0
LINE
  5
244
330
1F
100
AcDbEntity
  8
0
  6
Continuous
 62
     7
370
    15
100
AcDbLine
 10
5.2955486413
 20
4.6216331769
 30
0.0
 11
5.2955486413
 21
4.6453331364
 31
0.0
  0
LINE
  5
245
330
1F
100
AcDbEntity
  8
0
  6
Continuous
 62
     7
370
    15
100
AcDbLine
 10
5.2962486412
 20
4.6216331769
 30
0.0
 11
5.2955486413
 21
4.6216331769
 31
0.0
  0
LINE
  5
246
330
1F
100
AcDbEntity
  8
0
  6
Continuous
 62
     7
370
    15
100
AcDbLine
 10
5.2962486412
 20
4.6216331769
 30
0.0
 11
5.2962486412
 21
4.6118331701
 31
0.0
  0
LINE
  5
247
330
1F
100
AcDbEntity
  8
0
  6
Continuous
 62
     7
370
    15
100
AcDbLine
 10
5.2548486393
 20
4.566683165
 30
0.0
 11
5.2555486392
 21
4.566683165
 31
0.0
  0
LINE
  5
248
330
1F
100
AcDbEntity
  8
0
  6
Continuous
 62
     7
370
    15
100
AcDbLine
 10
5.2962486412
 20
4.576433159
 30
0.0
 11
5.2962486412
 21
4.5666331523
 31
0.0
  0
LINE
  5
249
330
1F
100
AcDbEntity
  8
0
  6
Continuous
 62
     7
370
    15
100
AcDbLine
 10
5.2962486412
 20
4.5666331523
 30
0.0
 11
5.2955486413
 21
4.5666331523
 31
0.0
  0
LINE
  5
24A
330
1F
100
AcDbEntity
  8
0
  6
Continuous
 62
     7
370
    15
100
AcDbLine
 10
5.2955486413
 20
4.5428331672
 30
0.0
 11
5.2955486413
 21
4.5666331523
 31
0.0
  0
LINE
  5
24B
330
1F
100
AcDbEntity
  8
0
  6
Continuous
 62
     7
370
    15
100
AcDbLine
 10
5.2962486412
 20
4.5428331672
 30
0.0
 11
5.2955486413
 21
4.5428331672
 31
0.0
  0
LINE
  5
24C
330
1F
100
AcDbEntity
  8
0
  6
Continuous
 62
     7
370
    15
100
AcDbLine
 10
5.2962486412
 20
4.5428331672
 30
0.0
 11
5.2962486412
 21
4.5330331604
 31
0.0
  0
LINE
  5
24D
330
1F
100
AcDbEntity
  8
0
  6
Continuous
 62
     7
370
    15
100
AcDbLine
 10
5.2962486412
 20
4.5330331604
 30
0.0
 11
5.2548486393
 21
4.5330328671
 31
0.0
  0
LINE
  5
24E
330
1F
100
AcDbEntity
  8
0
  6
Continuous
 62
     7
370
    15
100
AcDbLine
 10
5.2548486393
 20
4.5330328671
 30
0.0
 11
5.2548486393
 21
4.5429831321
 31
0.0
  0
LINE
  5
24F
330
1F
100
AcDbEntity
  8
0
  6
Continuous
 62
     7
370
    15
100
AcDbLine
 10
5.2548486393
 20
4.5429831321
 30
0.0
 11
5.2555486392
 21
4.5429831321
 31
0.0
  0
LINE
  5
250
330
1F
100
AcDbEntity
  8
0
  6
Continuous
 62
     7
370
    15
100
AcDbLine
 10
5.2555486392
 20
4.5429831321
 30
0.0
 11
5.2555486392
 21
4.566683165
 31
0.0
  0
LINE
  5
251
330
1F
100
AcDbEntity
  8
0
  6
Continuous
 62
     7
370
    15
100
AcDbLine
 10
5.2548486393
 20
4.566683165
 30
0.0
 11
5.2548486393
 21
4.5764334524
 31
0.0
  0
LINE
  5
252
330
1F
100
AcDbEntity
  8
0
  6
Continuous
 62
     7
370
    15
100
AcDbLine
 10
5.2962486412
 20
4.4543331762
 30
0.0
 11
5.2962486412
 21
4.4189331652
 31
0.0
  0
LINE
  5
253
330
1F
100
AcDbEntity
  8
0
  6
Continuous
 62
     7
370
    15
100
AcDbLine
 10
5.2962486412
 20
4.4189331652
 30
0.0
 11
5.2548486393
 21
4.4189334585
 31
0.0
  0
LINE
  5
254
330
1F
100
AcDbEntity
  8
0
  6
Continuous
 62
     7
370
    15
100
AcDbLine
 10
5.2548486393
 20
4.4543328829
 30
0.0
 11
5.2548486393
 21
4.4189334585
 31
0.0
  0
LINE
  5
255
330
1F
100
AcDbEntity
  8
0
  6
Continuous
 62
     7
370
    15
100
AcDbLine
 10
5.2962486412
 20
4.4543331762
 30
0.0
 11
5.2548486393
 21
4.4543328829
 31
0.0
  0
LINE
  5
256
330
1F
100
AcDbEntity
  8
0
  6
Continuous
 62
     7
370
    15
100
AcDbLine
 10
5.2548486393
 20
4.4543328829
 30
0.0
 11
5.2548486393
 21
4.4642831479
 31
0.0
  0
LINE
  5
257
330
1F
100
AcDbEntity
  8
0
  6
Continuous
 62
     7
370
    15
100
AcDbLine
 10
5.2548486393
 20
4.4642831479
 30
0.0
 11
5.2555486392
 21
4.4642831479
 31
0.0
  0
LINE
  5
258
330
1F
100
AcDbEntity
  8
0
  6
Continuous
 62
     7
370
    15
100
AcDbLine
 10
5.2548486393
 20
4.4878831553
 30
0.0
 11
5.2555486392
 21
4.4878831553
 31
0.0
  0
LINE
  5
259
330
1F
100
AcDbEntity
  8
0
  6
Continuous
 62
     7
370
    15
100
AcDbLine
 10
5.2548486393
 20
4.4878831553
 30
0.0
 11
5.2548486393
 21
4.4976334427
 31
0.0
  0
LINE
  5
25A
330
1F
100
AcDbEntity
  8
0
  6
Continuous
 62
     7
370
    15
100
AcDbLine
 10
5.2962486412
 20
4.4976331493
 30
0.0
 11
5.2548486393
 21
4.4976334427
 31
0.0
  0
LINE
  5
25B
330
1F
100
AcDbEntity
  8
0
  6
Continuous
 62
     7
370
    15
100
AcDbLine
 10
5.2962486412
 20
4.4976331493
 30
0.0
 11
5.2962486412
 21
4.4878331426
 31
0.0
  0
LINE
  5
25C
330
1F
100
AcDbEntity
  8
0
  6
Continuous
 62
     7
370
    15
100
AcDbLine
 10
5.2962486412
 20
4.4878331426
 30
0.0
 11
5.2955486413
 21
4.4878331426
 31
0.0
  0
LINE
  5
25D
330
1F
100
AcDbEntity
  8
0
  6
Continuous
 62
     7
370
    15
100
AcDbLine
 10
5.2955486413
 20
4.464133183
 30
0.0
 11
5.2955486413
 21
4.4878331426
 31
0.0
  0
LINE
  5
25E
330
1F
100
AcDbEntity
  8
0
  6
Continuous
 62
     7
370
    15
100
AcDbLine
 10
5.2962486412
 20
4.464133183
 30
0.0
 11
5.2955486413
 21
4.464133183
 31
0.0
  0
LINE
  5
25F
330
1F
100
AcDbEntity
  8
0
  6
Continuous
 62
     7
370
    15
100
AcDbLine
 10
5.2962486412
 20
4.464133183
 30
0.0
 11
5.2962486412
 21
4.4543331762
 31
0.0
  0
LINE
  5
260
330
1F
100
AcDbEntity
  8
0
  6
Continuous
 62
     7
370
    15
100
AcDbLine
 10
5.2555486392
 20
4.4642831479
 30
0.0
 11
5.2555486392
 21
4.4878831553
 31
0.0
  0
LINE
  5
261
330
1F
100
AcDbEntity
  8
0
  6
Continuous
 62
     7
370
    15
100
AcDbLine
 10
5.2962486412
 20
4.5330331604
 30
0.0
 11
5.2962486412
 21
4.4976331493
 31
0.0
  0
LINE
  5
262
330
1F
100
AcDbEntity
  8
0
  6
Continuous
 62
     7
370
    15
100
AcDbLine
 10
5.2548486393
 20
4.5330328671
 30
0.0
 11
5.2548486393
 21
4.4976334427
 31
0.0
  0
LINE
  5
263
330
1F
100
AcDbEntity
  8
0
  6
Continuous
 62
     7
370
    15
100
AcDbLine
 10
5.2962486412
 20
4.6905331543
 30
0.0
 11
5.2962486412
 21
4.6551331432
 31
0.0
  0
LINE
  5
264
330
1F
100
AcDbEntity
  8
0
  6
Continuous
 62
     7
370
    15
100
AcDbLine
 10
5.2548486393
 20
4.690532861
 30
0.0
 11
5.2548486393
 21
4.6551334366
 31
0.0
  0
LINE
  5
265
330
1F
100
AcDbEntity
  8
0
  6
Continuous
 62
     7
370
    15
100
AcDbLine
 10
5.2962486412
 20
4.6905331543
 30
0.0
 11
5.2548486393
 21
4.690532861
 31
0.0
  0
LINE
  5
266
330
1F
100
AcDbEntity
  8
0
  6
Continuous
 62
     7
370
    15
100
AcDbLine
 10
5.2955486413
 20
4.7003331611
 30
0.0
 11
5.2955486413
 21
4.7240330473
 31
0.0
  0
LINE
  5
267
330
1F
100
AcDbEntity
  8
0
  6
Continuous
 62
     7
370
    15
100
AcDbLine
 10
5.2962486412
 20
4.7003331611
 30
0.0
 11
5.2955486413
 21
4.7003331611
 31
0.0
  0
LINE
  5
268
330
1F
100
AcDbEntity
  8
0
  6
Continuous
 62
     7
370
    15
100
AcDbLine
 10
5.2962486412
 20
4.7003331611
 30
0.0
 11
5.2962486412
 21
4.6905331543
 31
0.0
  0
LINE
  5
269
330
1F
100
AcDbEntity
  8
0
  6
Continuous
 62
     7
370
    15
100
AcDbLine
 10
5.2548486393
 20
4.690532861
 30
0.0
 11
5.2548486393
 21
4.700483126
 31
0.0
  0
LINE
  5
26A
330
1F
100
AcDbEntity
  8
0
  6
Continuous
 62
     7
370
    15
100
AcDbLine
 10
5.2548486393
 20
4.700483126
 30
0.0
 11
5.2555486392
 21
4.700483126
 31
0.0
  0
LINE
  5
26B
330
1F
100
AcDbEntity
  8
0
  6
Continuous
 62
     7
370
    15
100
AcDbLine
 10
5.2555486392
 20
4.700483126
 30
0.0
 11
5.2555486392
 21
4.7240831334
 31
0.0
  0
LINE
  5
26C
330
1F
100
AcDbEntity
  8
0
  6
Continuous
 62
     7
370
    15
100
AcDbLine
 10
5.2548486393
 20
4.1393328585
 30
0.0
 11
5.2548486393
 21
4.1492831602
 31
0.0
  0
LINE
  5
26D
330
1F
100
AcDbEntity
  8
0
  6
Continuous
 62
     7
370
    15
100
AcDbLine
 10
5.2548486393
 20
4.1492831602
 30
0.0
 11
5.2555486392
 21
4.1492831602
 31
0.0
  0
LINE
  5
26E
330
1F
100
AcDbEntity
  8
0
  6
Continuous
 62
     7
370
    15
100
AcDbLine
 10
5.2548486393
 20
4.1729831564
 30
0.0
 11
5.2555486392
 21
4.1729831564
 31
0.0
  0
LINE
  5
26F
330
1F
100
AcDbEntity
  8
0
  6
Continuous
 62
     7
370
    15
100
AcDbLine
 10
5.2548486393
 20
4.1729831564
 30
0.0
 11
5.2548486393
 21
4.1827334438
 31
0.0
  0
LINE
  5
270
330
1F
100
AcDbEntity
  8
0
  6
Continuous
 62
     7
370
    15
100
AcDbLine
 10
5.2962486412
 20
4.1827331504
 30
0.0
 11
5.2548486393
 21
4.1827334438
 31
0.0
  0
LINE
  5
271
330
1F
100
AcDbEntity
  8
0
  6
Continuous
 62
     7
370
    15
100
AcDbLine
 10
5.2962486412
 20
4.1827331504
 30
0.0
 11
5.2962486412
 21
4.1729331436
 31
0.0
  0
LINE
  5
272
330
1F
100
AcDbEntity
  8
0
  6
Continuous
 62
     7
370
    15
100
AcDbLine
 10
5.2962486412
 20
4.1729331436
 30
0.0
 11
5.2955486413
 21
4.1729331436
 31
0.0
  0
LINE
  5
273
330
1F
100
AcDbEntity
  8
0
  6
Continuous
 62
     7
370
    15
100
AcDbLine
 10
5.2955486413
 20
4.1491331586
 30
0.0
 11
5.2955486413
 21
4.1729331436
 31
0.0
  0
LINE
  5
274
330
1F
100
AcDbEntity
  8
0
  6
Continuous
 62
     7
370
    15
100
AcDbLine
 10
5.2962486412
 20
4.1491331586
 30
0.0
 11
5.2955486413
 21
4.1491331586
 31
0.0
  0
LINE
  5
275
330
1F
100
AcDbEntity
  8
0
  6
Continuous
 62
     7
370
    15
100
AcDbLine
 10
5.2962486412
 20
4.1491331586
 30
0.0
 11
5.2962486412
 21
4.1393331518
 31
0.0
  0
LINE
  5
276
330
1F
100
AcDbEntity
  8
0
  6
Continuous
 62
     7
370
    15
100
AcDbLine
 10
5.2962486412
 20
4.1393331518
 30
0.0
 11
5.2548486393
 21
4.1393328585
 31
0.0
  0
LINE
  5
277
330
1F
100
AcDbEntity
  8
0
  6
Continuous
 62
     7
370
    15
100
AcDbLine
 10
5.2555486392
 20
4.1492831602
 30
0.0
 11
5.2555486392
 21
4.1729831564
 31
0.0
  0
LINE
  5
278
330
1F
100
AcDbEntity
  8
0
  6
Continuous
 62
     7
370
    15
100
AcDbLine
 10
5.2962486412
 20
4.3755331665
 30
0.0
 11
5.2962486412
 21
4.3401331555
 31
0.0
  0
LINE
  5
279
330
1F
100
AcDbEntity
  8
0
  6
Continuous
 62
     7
370
    15
100
AcDbLine
 10
5.2962486412
 20
4.3401331555
 30
0.0
 11
5.2548486393
 21
4.3401334488
 31
0.0
  0
LINE
  5
27A
330
1F
100
AcDbEntity
  8
0
  6
Continuous
 62
     7
370
    15
100
AcDbLine
 10
5.2548486393
 20
4.3755328732
 30
0.0
 11
5.2548486393
 21
4.3401334488
 31
0.0
  0
LINE
  5
27B
330
1F
100
AcDbEntity
  8
0
  6
Continuous
 62
     7
370
    15
100
AcDbLine
 10
5.2962486412
 20
4.3755331665
 30
0.0
 11
5.2548486393
 21
4.3755328732
 31
0.0
  0
LINE
  5
27C
330
1F
100
AcDbEntity
  8
0
  6
Continuous
 62
     7
370
    15
100
AcDbLine
 10
5.2962486412
 20
3.7456331523
 30
0.0
 11
5.2962486412
 21
3.710233155
 31
0.0
  0
LINE
  5
27D
330
1F
100
AcDbEntity
  8
0
  6
Continuous
 62
     7
370
    15
100
AcDbLine
 10
5.2962486412
 20
3.710233155
 30
0.0
 11
5.2548486393
 21
3.7102334392
 31
0.0
  0
LINE
  5
27E
330
1F
100
AcDbEntity
  8
0
  6
Continuous
 62
     7
370
    15
100
AcDbLine
 10
5.2548486393
 20
3.7456328682
 30
0.0
 11
5.2548486393
 21
3.7102334392
 31
0.0
  0
LINE
  5
27F
330
1F
100
AcDbEntity
  8
0
  6
Continuous
 62
     7
370
    15
100
AcDbLine
 10
5.2962486412
 20
3.7456331523
 30
0.0
 11
5.2548486393
 21
3.7456328682
 31
0.0
  0
LINE
  5
280
330
1F
100
AcDbEntity
  8
0
  6
Continuous
 62
     7
370
    15
100
AcDbLine
 10
5.2548486393
 20
3.7456328682
 30
0.0
 11
5.2548486393
 21
3.7555831516
 31
0.0
  0
LINE
  5
281
330
1F
100
AcDbEntity
  8
0
  6
Continuous
 62
     7
370
    15
100
AcDbLine
 10
5.2548486393
 20
3.7555831516
 30
0.0
 11
5.2555486392
 21
3.7555831516
 31
0.0
  0
LINE
  5
282
330
1F
100
AcDbEntity
  8
0
  6
Continuous
 62
     7
370
    15
100
AcDbLine
 10
5.2548486393
 20
3.779283157
 30
0.0
 11
5.2555486392
 21
3.779283157
 31
0.0
  0
LINE
  5
283
330
1F
100
AcDbEntity
  8
0
  6
Continuous
 62
     7
370
    15
100
AcDbLine
 10
5.2548486393
 20
3.779283157
 30
0.0
 11
5.2548486393
 21
3.7890334352
 31
0.0
  0
LINE
  5
284
330
1F
100
AcDbEntity
  8
0
  6
Continuous
 62
     7
370
    15
100
AcDbLine
 10
5.2962486412
 20
3.789033151
 30
0.0
 11
5.2548486393
 21
3.7890334352
 31
0.0
  0
LINE
  5
285
330
1F
100
AcDbEntity
  8
0
  6
Continuous
 62
     7
370
    15
100
AcDbLine
 10
5.2962486412
 20
3.789033151
 30
0.0
 11
5.2962486412
 21
3.7792331534
 31
0.0
  0
LINE
  5
286
330
1F
100
AcDbEntity
  8
0
  6
Continuous
 62
     7
370
    15
100
AcDbLine
 10
5.2962486412
 20
3.7792331534
 30
0.0
 11
5.2955486413
 21
3.7792331534
 31
0.0
  0
LINE
  5
287
330
1F
100
AcDbEntity
  8
0
  6
Continuous
 62
     7
370
    15
100
AcDbLine
 10
5.2955486413
 20
3.7554331591
 30
0.0
 11
5.2955486413
 21
3.7792331534
 31
0.0
  0
LINE
  5
288
330
1F
100
AcDbEntity
  8
0
  6
Continuous
 62
     7
370
    15
100
AcDbLine
 10
5.2962486412
 20
3.7554331591
 30
0.0
 11
5.2955486413
 21
3.7554331591
 31
0.0
  0
LINE
  5
289
330
1F
100
AcDbEntity
  8
0
  6
Continuous
 62
     7
370
    15
100
AcDbLine
 10
5.2962486412
 20
3.7554331591
 30
0.0
 11
5.2962486412
 21
3.7456331523
 31
0.0
  0
LINE
  5
28A
330
1F
100
AcDbEntity
  8
0
  6
Continuous
 62
     7
370
    15
100
AcDbLine
 10
5.2555486392
 20
3.7555831516
 30
0.0
 11
5.2555486392
 21
3.779283157
 31
0.0
  0
LINE
  5
28B
330
1F
100
AcDbEntity
  8
0
  6
Continuous
 62
     7
370
    15
100
AcDbLine
 10
5.2962486412
 20
4.2181331615
 30
0.0
 11
5.2962486412
 21
4.1827331504
 31
0.0
  0
LINE
  5
28C
330
1F
100
AcDbEntity
  8
0
  6
Continuous
 62
     7
370
    15
100
AcDbLine
 10
5.2548486393
 20
4.2181328682
 30
0.0
 11
5.2548486393
 21
4.1827334438
 31
0.0
  0
LINE
  5
28D
330
1F
100
AcDbEntity
  8
0
  6
Continuous
 62
     7
370
    15
100
AcDbLine
 10
5.2962486412
 20
4.2181331615
 30
0.0
 11
5.2548486393
 21
4.2181328682
 31
0.0
  0
LINE
  5
28E
330
1F
100
AcDbEntity
  8
0
  6
Continuous
 62
     7
370
    15
100
AcDbLine
 10
5.2962486412
 20
4.1393331518
 30
0.0
 11
5.2962486412
 21
4.1039331407
 31
0.0
  0
LINE
  5
28F
330
1F
100
AcDbEntity
  8
0
  6
Continuous
 62
     7
370
    15
100
AcDbLine
 10
5.2962486412
 20
4.1039331407
 30
0.0
 11
5.2548486393
 21
4.1039334341
 31
0.0
  0
LINE
  5
290
330
1F
100
AcDbEntity
  8
0
  6
Continuous
 62
     7
370
    15
100
AcDbLine
 10
5.2548486393
 20
4.1393328585
 30
0.0
 11
5.2548486393
 21
4.1039334341
 31
0.0
  0
LINE
  5
291
330
1F
100
AcDbEntity
  8
0
  6
Continuous
 62
     7
370
    15
100
AcDbLine
 10
5.2962486412
 20
3.8244331529
 30
0.0
 11
5.2962486412
 21
3.789033151
 31
0.0
  0
LINE
  5
292
330
1F
100
AcDbEntity
  8
0
  6
Continuous
 62
     7
370
    15
100
AcDbLine
 10
5.2548486393
 20
3.8244328779
 30
0.0
 11
5.2548486393
 21
3.7890334352
 31
0.0
  0
LINE
  5
293
330
1F
100
AcDbEntity
  8
0
  6
Continuous
 62
     7
370
    15
100
AcDbLine
 10
5.2962486412
 20
3.8244331529
 30
0.0
 11
5.2548486393
 21
3.8244328779
 31
0.0
  0
LINE
  5
294
330
1F
100
AcDbEntity
  8
0
  6
Continuous
 62
     7
370
    15
100
AcDbLine
 10
5.2962486412
 20
4.2968331823
 30
0.0
 11
5.2962486412
 21
4.2614331713
 31
0.0
  0
LINE
  5
295
330
1F
100
AcDbEntity
  8
0
  6
Continuous
 62
     7
370
    15
100
AcDbLine
 10
5.2962486412
 20
4.2614331713
 30
0.0
 11
5.2548486393
 21
4.2614334646
 31
0.0
  0
LINE
  5
296
330
1F
100
AcDbEntity
  8
0
  6
Continuous
 62
     7
370
    15
100
AcDbLine
 10
5.2548486393
 20
4.296832889
 30
0.0
 11
5.2548486393
 21
4.2614334646
 31
0.0
  0
LINE
  5
297
330
1F
100
AcDbEntity
  8
0
  6
Continuous
 62
     7
370
    15
100
AcDbLine
 10
5.2962486412
 20
4.2968331823
 30
0.0
 11
5.2548486393
 21
4.296832889
 31
0.0
  0
LINE
  5
298
330
1F
100
AcDbEntity
  8
0
  6
Continuous
 62
     7
370
    15
100
AcDbLine
 10
5.2548486393
 20
4.0606328743
 30
0.0
 11
5.2548486393
 21
4.0705831393
 31
0.0
  0
LINE
  5
299
330
1F
100
AcDbEntity
  8
0
  6
Continuous
 62
     7
370
    15
100
AcDbLine
 10
5.2548486393
 20
4.0705831393
 30
0.0
 11
5.2555486392
 21
4.0705831393
 31
0.0
  0
LINE
  5
29A
330
1F
100
AcDbEntity
  8
0
  6
Continuous
 62
     7
370
    15
100
AcDbLine
 10
5.2548486393
 20
4.0941831467
 30
0.0
 11
5.2555486392
 21
4.0941831467
 31
0.0
  0
LINE
  5
29B
330
1F
100
AcDbEntity
  8
0
  6
Continuous
 62
     7
370
    15
100
AcDbLine
 10
5.2548486393
 20
4.0941831467
 30
0.0
 11
5.2548486393
 21
4.1039334341
 31
0.0
  0
LINE
  5
29C
330
1F
100
AcDbEntity
  8
0
  6
Continuous
 62
     7
370
    15
100
AcDbLine
 10
5.2962486412
 20
4.1039331407
 30
0.0
 11
5.2962486412
 21
4.0941331706
 31
0.0
  0
LINE
  5
29D
330
1F
100
AcDbEntity
  8
0
  6
Continuous
 62
     7
370
    15
100
AcDbLine
 10
5.2962486412
 20
4.0941331706
 30
0.0
 11
5.2955486413
 21
4.0941331706
 31
0.0
  0
LINE
  5
29E
330
1F
100
AcDbEntity
  8
0
  6
Continuous
 62
     7
370
    15
100
AcDbLine
 10
5.2955486413
 20
4.0704331377
 30
0.0
 11
5.2955486413
 21
4.0941331706
 31
0.0
  0
LINE
  5
29F
330
1F
100
AcDbEntity
  8
0
  6
Continuous
 62
     7
370
    15
100
AcDbLine
 10
5.2962486412
 20
4.0704331377
 30
0.0
 11
5.2955486413
 21
4.0704331377
 31
0.0
  0
LINE
  5
2A0
330
1F
100
AcDbEntity
  8
0
  6
Continuous
 62
     7
370
    15
100
AcDbLine
 10
5.2962486412
 20
4.0704331377
 30
0.0
 11
5.2962486412
 21
4.0606331676
 31
0.0
  0
LINE
  5
2A1
330
1F
100
AcDbEntity
  8
0
  6
Continuous
 62
     7
370
    15
100
AcDbLine
 10
5.2962486412
 20
4.0606331676
 30
0.0
 11
5.2548486393
 21
4.0606328743
 31
0.0
  0
LINE
  5
2A2
330
1F
100
AcDbEntity
  8
0
  6
Continuous
 62
     7
370
    15
100
AcDbLine
 10
5.2555486392
 20
4.0705831393
 30
0.0
 11
5.2555486392
 21
4.0941831467
 31
0.0
  0
LINE
  5
2A3
330
1F
100
AcDbEntity
  8
0
  6
Continuous
 62
     7
370
    15
100
AcDbLine
 10
5.2548486393
 20
4.3755328732
 30
0.0
 11
5.2548486393
 21
4.3854831382
 31
0.0
  0
LINE
  5
2A4
330
1F
100
AcDbEntity
  8
0
  6
Continuous
 62
     7
370
    15
100
AcDbLine
 10
5.2548486393
 20
4.3854831382
 30
0.0
 11
5.2555486392
 21
4.3854831382
 31
0.0
  0
LINE
  5
2A5
330
1F
100
AcDbEntity
  8
0
  6
Continuous
 62
     7
370
    15
100
AcDbLine
 10
5.2548486393
 20
4.4091831711
 30
0.0
 11
5.2555486392
 21
4.4091831711
 31
0.0
  0
LINE
  5
2A6
330
1F
100
AcDbEntity
  8
0
  6
Continuous
 62
     7
370
    15
100
AcDbLine
 10
5.2962486412
 20
4.4189331652
 30
0.0
 11
5.2962486412
 21
4.4091331584
 31
0.0
  0
LINE
  5
2A7
330
1F
100
AcDbEntity
  8
0
  6
Continuous
 62
     7
370
    15
100
AcDbLine
 10
5.2962486412
 20
4.4091331584
 30
0.0
 11
5.2955486413
 21
4.4091331584
 31
0.0
  0
LINE
  5
2A8
330
1F
100
AcDbEntity
  8
0
  6
Continuous
 62
     7
370
    15
100
AcDbLine
 10
5.2955486413
 20
4.3853331733
 30
0.0
 11
5.2955486413
 21
4.4091331584
 31
0.0
  0
LINE
  5
2A9
330
1F
100
AcDbEntity
  8
0
  6
Continuous
 62
     7
370
    15
100
AcDbLine
 10
5.2962486412
 20
4.3853331733
 30
0.0
 11
5.2955486413
 21
4.3853331733
 31
0.0
  0
LINE
  5
2AA
330
1F
100
AcDbEntity
  8
0
  6
Continuous
 62
     7
370
    15
100
AcDbLine
 10
5.2962486412
 20
4.3853331733
 30
0.0
 11
5.2962486412
 21
4.3755331665
 31
0.0
  0
LINE
  5
2AB
330
1F
100
AcDbEntity
  8
0
  6
Continuous
 62
     7
370
    15
100
AcDbLine
 10
5.2548486393
 20
4.4091831711
 30
0.0
 11
5.2548486393
 21
4.4189334585
 31
0.0
  0
LINE
  5
2AC
330
1F
100
AcDbEntity
  8
0
  6
Continuous
 62
     7
370
    15
100
AcDbLine
 10
5.2555486392
 20
4.3854831382
 30
0.0
 11
5.2555486392
 21
4.4091831711
 31
0.0
  0
LINE
  5
2AD
330
1F
100
AcDbEntity
  8
0
  6
Continuous
 62
     7
370
    15
100
AcDbLine
 10
5.2548486393
 20
4.2181328682
 30
0.0
 11
5.2548486393
 21
4.2280831699
 31
0.0
  0
LINE
  5
2AE
330
1F
100
AcDbEntity
  8
0
  6
Continuous
 62
     7
370
    15
100
AcDbLine
 10
5.2548486393
 20
4.2280831699
 30
0.0
 11
5.2555486392
 21
4.2280831699
 31
0.0
  0
LINE
  5
2AF
330
1F
100
AcDbEntity
  8
0
  6
Continuous
 62
     7
370
    15
100
AcDbLine
 10
5.2548486393
 20
4.2516831406
 30
0.0
 11
5.2555486392
 21
4.2516831406
 31
0.0
  0
LINE
  5
2B0
330
1F
100
AcDbEntity
  8
0
  6
Continuous
 62
     7
370
    15
100
AcDbLine
 10
5.2548486393
 20
4.2516831406
 30
0.0
 11
5.2548486393
 21
4.2614334646
 31
0.0
  0
LINE
  5
2B1
330
1F
100
AcDbEntity
  8
0
  6
Continuous
 62
     7
370
    15
100
AcDbLine
 10
5.2962486412
 20
4.2614331713
 30
0.0
 11
5.2962486412
 21
4.2516331645
 31
0.0
  0
LINE
  5
2B2
330
1F
100
AcDbEntity
  8
0
  6
Continuous
 62
     7
370
    15
100
AcDbLine
 10
5.2962486412
 20
4.2516331645
 30
0.0
 11
5.2955486413
 21
4.2516331645
 31
0.0
  0
LINE
  5
2B3
330
1F
100
AcDbEntity
  8
0
  6
Continuous
 62
     7
370
    15
100
AcDbLine
 10
5.2955486413
 20
4.2279331683
 30
0.0
 11
5.2955486413
 21
4.2516331645
 31
0.0
  0
LINE
  5
2B4
330
1F
100
AcDbEntity
  8
0
  6
Continuous
 62
     7
370
    15
100
AcDbLine
 10
5.2962486412
 20
4.2279331683
 30
0.0
 11
5.2955486413
 21
4.2279331683
 31
0.0
  0
LINE
  5
2B5
330
1F
100
AcDbEntity
  8
0
  6
Continuous
 62
     7
370
    15
100
AcDbLine
 10
5.2962486412
 20
4.2279331683
 30
0.0
 11
5.2962486412
 21
4.2181331615
 31
0.0
  0
LINE
  5
2B6
330
1F
100
AcDbEntity
  8
0
  6
Continuous
 62
     7
370
    15
100
AcDbLine
 10
5.2555486392
 20
4.2280831699
 30
0.0
 11
5.2555486392
 21
4.2516831406
 31
0.0
  0
LINE
  5
2B7
330
1F
100
AcDbEntity
  8
0
  6
Continuous
 62
     7
370
    15
100
AcDbLine
 10
5.2962486412
 20
3.9031331554
 30
0.0
 11
5.2962486412
 21
3.8677331627
 31
0.0
  0
LINE
  5
2B8
330
1F
100
AcDbEntity
  8
0
  6
Continuous
 62
     7
370
    15
100
AcDbLine
 10
5.2962486412
 20
3.8677331627
 30
0.0
 11
5.2548486393
 21
3.8677334377
 31
0.0
  0
LINE
  5
2B9
330
1F
100
AcDbEntity
  8
0
  6
Continuous
 62
     7
370
    15
100
AcDbLine
 10
5.2548486393
 20
3.9031328804
 30
0.0
 11
5.2548486393
 21
3.8677334377
 31
0.0
  0
LINE
  5
2BA
330
1F
100
AcDbEntity
  8
0
  6
Continuous
 62
     7
370
    15
100
AcDbLine
 10
5.2962486412
 20
3.9031331554
 30
0.0
 11
5.2548486393
 21
3.9031328804
 31
0.0
  0
LINE
  5
2BB
330
1F
100
AcDbEntity
  8
0
  6
Continuous
 62
     7
370
    15
100
AcDbLine
 10
5.2962486412
 20
4.0606331676
 30
0.0
 11
5.2962486412
 21
4.0252331566
 31
0.0
  0
LINE
  5
2BC
330
1F
100
AcDbEntity
  8
0
  6
Continuous
 62
     7
370
    15
100
AcDbLine
 10
5.2962486412
 20
4.0252331566
 30
0.0
 11
5.2548486393
 21
4.0252334499
 31
0.0
  0
LINE
  5
2BD
330
1F
100
AcDbEntity
  8
0
  6
Continuous
 62
     7
370
    15
100
AcDbLine
 10
5.2548486393
 20
4.0606328743
 30
0.0
 11
5.2548486393
 21
4.0252334499
 31
0.0
  0
LINE
  5
2BE
330
1F
100
AcDbEntity
  8
0
  6
Continuous
 62
     7
370
    15
100
AcDbLine
 10
5.2548486393
 20
3.9031328804
 30
0.0
 11
5.2548486393
 21
3.9130831638
 31
0.0
  0
LINE
  5
2BF
330
1F
100
AcDbEntity
  8
0
  6
Continuous
 62
     7
370
    15
100
AcDbLine
 10
5.2548486393
 20
3.9130831638
 30
0.0
 11
5.2555486392
 21
3.9130831638
 31
0.0
  0
LINE
  5
2C0
330
1F
100
AcDbEntity
  8
0
  6
Continuous
 62
     7
370
    15
100
AcDbLine
 10
5.2548486393
 20
3.9366831528
 30
0.0
 11
5.2555486392
 21
3.9366831528
 31
0.0
  0
LINE
  5
2C1
330
1F
100
AcDbEntity
  8
0
  6
Continuous
 62
     7
370
    15
100
AcDbLine
 10
5.2548486393
 20
3.9366831528
 30
0.0
 11
5.2548486393
 21
3.9464334402
 31
0.0
  0
LINE
  5
2C2
330
1F
100
AcDbEntity
  8
0
  6
Continuous
 62
     7
370
    15
100
AcDbLine
 10
5.2962486412
 20
3.9464331469
 30
0.0
 11
5.2548486393
 21
3.9464334402
 31
0.0
  0
LINE
  5
2C3
330
1F
100
AcDbEntity
  8
0
  6
Continuous
 62
     7
370
    15
100
AcDbLine
 10
5.2962486412
 20
3.9464331469
 30
0.0
 11
5.2962486412
 21
3.9366331584
 31
0.0
  0
LINE
  5
2C4
330
1F
100
AcDbEntity
  8
0
  6
Continuous
 62
     7
370
    15
100
AcDbLine
 10
5.2962486412
 20
3.9366331584
 30
0.0
 11
5.2955486413
 21
3.9366331584
 31
0.0
  0
LINE
  5
2C5
330
1F
100
AcDbEntity
  8
0
  6
Continuous
 62
     7
370
    15
100
AcDbLine
 10
5.2955486413
 20
3.9129331622
 30
0.0
 11
5.2955486413
 21
3.9366331584
 31
0.0
  0
LINE
  5
2C6
330
1F
100
AcDbEntity
  8
0
  6
Continuous
 62
     7
370
    15
100
AcDbLine
 10
5.2962486412
 20
3.9129331622
 30
0.0
 11
5.2955486413
 21
3.9129331622
 31
0.0
  0
LINE
  5
2C7
330
1F
100
AcDbEntity
  8
0
  6
Continuous
 62
     7
370
    15
100
AcDbLine
 10
5.2962486412
 20
3.9129331622
 30
0.0
 11
5.2962486412
 21
3.9031331554
 31
0.0
  0
LINE
  5
2C8
330
1F
100
AcDbEntity
  8
0
  6
Continuous
 62
     7
370
    15
100
AcDbLine
 10
5.2555486392
 20
3.9130831638
 30
0.0
 11
5.2555486392
 21
3.9366831528
 31
0.0
  0
LINE
  5
2C9
330
1F
100
AcDbEntity
  8
0
  6
Continuous
 62
     7
370
    15
100
AcDbLine
 10
5.2548486393
 20
4.296832889
 30
0.0
 11
5.2548486393
 21
4.3067831541
 31
0.0
  0
LINE
  5
2CA
330
1F
100
AcDbEntity
  8
0
  6
Continuous
 62
     7
370
    15
100
AcDbLine
 10
5.2548486393
 20
4.3067831541
 30
0.0
 11
5.2555486392
 21
4.3067831541
 31
0.0
  0
LINE
  5
2CB
330
1F
100
AcDbEntity
  8
0
  6
Continuous
 62
     7
370
    15
100
AcDbLine
 10
5.2548486393
 20
4.3303831614
 30
0.0
 11
5.2555486392
 21
4.3303831614
 31
0.0
  0
LINE
  5
2CC
330
1F
100
AcDbEntity
  8
0
  6
Continuous
 62
     7
370
    15
100
AcDbLine
 10
5.2548486393
 20
4.3303831614
 30
0.0
 11
5.2548486393
 21
4.3401334488
 31
0.0
  0
LINE
  5
2CD
330
1F
100
AcDbEntity
  8
0
  6
Continuous
 62
     7
370
    15
100
AcDbLine
 10
5.2962486412
 20
4.3401331555
 30
0.0
 11
5.2962486412
 21
4.3303331487
 31
0.0
  0
LINE
  5
2CE
330
1F
100
AcDbEntity
  8
0
  6
Continuous
 62
     7
370
    15
100
AcDbLine
 10
5.2962486412
 20
4.3303331487
 30
0.0
 11
5.2955486413
 21
4.3303331487
 31
0.0
  0
LINE
  5
2CF
330
1F
100
AcDbEntity
  8
0
  6
Continuous
 62
     7
370
    15
100
AcDbLine
 10
5.2955486413
 20
4.3066331891
 30
0.0
 11
5.2955486413
 21
4.3303331487
 31
0.0
  0
LINE
  5
2D0
330
1F
100
AcDbEntity
  8
0
  6
Continuous
 62
     7
370
    15
100
AcDbLine
 10
5.2962486412
 20
4.3066331891
 30
0.0
 11
5.2955486413
 21
4.3066331891
 31
0.0
  0
LINE
  5
2D1
330
1F
100
AcDbEntity
  8
0
  6
Continuous
 62
     7
370
    15
100
AcDbLine
 10
5.2962486412
 20
4.3066331891
 30
0.0
 11
5.2962486412
 21
4.2968331823
 31
0.0
  0
LINE
  5
2D2
330
1F
100
AcDbEntity
  8
0
  6
Continuous
 62
     7
370
    15
100
AcDbLine
 10
5.2555486392
 20
4.3067831541
 30
0.0
 11
5.2555486392
 21
4.3303831614
 31
0.0
  0
LINE
  5
2D3
330
1F
100
AcDbEntity
  8
0
  6
Continuous
 62
     7
370
    15
100
AcDbLine
 10
5.2548486393
 20
3.9818328646
 30
0.0
 11
5.2548486393
 21
3.9917831663
 31
0.0
  0
LINE
  5
2D4
330
1F
100
AcDbEntity
  8
0
  6
Continuous
 62
     7
370
    15
100
AcDbLine
 10
5.2548486393
 20
3.9917831663
 30
0.0
 11
5.2555486392
 21
3.9917831663
 31
0.0
  0
LINE
  5
2D5
330
1F
100
AcDbEntity
  8
0
  6
Continuous
 62
     7
370
    15
100
AcDbLine
 10
5.2548486393
 20
4.0154831625
 30
0.0
 11
5.2555486392
 21
4.0154831625
 31
0.0
  0
LINE
  5
2D6
330
1F
100
AcDbEntity
  8
0
  6
Continuous
 62
     7
370
    15
100
AcDbLine
 10
5.2548486393
 20
4.0154831625
 30
0.0
 11
5.2548486393
 21
4.0252334499
 31
0.0
  0
LINE
  5
2D7
330
1F
100
AcDbEntity
  8
0
  6
Continuous
 62
     7
370
    15
100
AcDbLine
 10
5.2962486412
 20
4.0252331566
 30
0.0
 11
5.2962486412
 21
4.0154331498
 31
0.0
  0
LINE
  5
2D8
330
1F
100
AcDbEntity
  8
0
  6
Continuous
 62
     7
370
    15
100
AcDbLine
 10
5.2962486412
 20
4.0154331498
 30
0.0
 11
5.2955486413
 21
4.0154331498
 31
0.0
  0
LINE
  5
2D9
330
1F
100
AcDbEntity
  8
0
  6
Continuous
 62
     7
370
    15
100
AcDbLine
 10
5.2955486413
 20
3.9916331647
 30
0.0
 11
5.2955486413
 21
4.0154331498
 31
0.0
  0
LINE
  5
2DA
330
1F
100
AcDbEntity
  8
0
  6
Continuous
 62
     7
370
    15
100
AcDbLine
 10
5.2962486412
 20
3.9916331647
 30
0.0
 11
5.2955486413
 21
3.9916331647
 31
0.0
  0
LINE
  5
2DB
330
1F
100
AcDbEntity
  8
0
  6
Continuous
 62
     7
370
    15
100
AcDbLine
 10
5.2962486412
 20
3.9916331647
 30
0.0
 11
5.2962486412
 21
3.9818331579
 31
0.0
  0
LINE
  5
2DC
330
1F
100
AcDbEntity
  8
0
  6
Continuous
 62
     7
370
    15
100
AcDbLine
 10
5.2962486412
 20
3.9818331579
 30
0.0
 11
5.2548486393
 21
3.9818328646
 31
0.0
  0
LINE
  5
2DD
330
1F
100
AcDbEntity
  8
0
  6
Continuous
 62
     7
370
    15
100
AcDbLine
 10
5.2555486392
 20
3.9917831663
 30
0.0
 11
5.2555486392
 21
4.0154831625
 31
0.0
  0
LINE
  5
2DE
330
1F
100
AcDbEntity
  8
0
  6
Continuous
 62
     7
370
    15
100
AcDbLine
 10
5.2962486412
 20
3.9818331579
 30
0.0
 11
5.2962486412
 21
3.9464331469
 31
0.0
  0
LINE
  5
2DF
330
1F
100
AcDbEntity
  8
0
  6
Continuous
 62
     7
370
    15
100
AcDbLine
 10
5.2548486393
 20
3.9818328646
 30
0.0
 11
5.2548486393
 21
3.9464334402
 31
0.0
  0
LINE
  5
2E0
330
1F
100
AcDbEntity
  8
0
  6
Continuous
 62
     7
370
    15
100
AcDbLine
 10
5.2548486393
 20
3.8244328779
 30
0.0
 11
5.2548486393
 21
3.8343831613
 31
0.0
  0
LINE
  5
2E1
330
1F
100
AcDbEntity
  8
0
  6
Continuous
 62
     7
370
    15
100
AcDbLine
 10
5.2548486393
 20
3.8343831613
 30
0.0
 11
5.2555486392
 21
3.8343831613
 31
0.0
  0
LINE
  5
2E2
330
1F
100
AcDbEntity
  8
0
  6
Continuous
 62
     7
370
    15
100
AcDbLine
 10
5.2548486393
 20
3.8579831503
 30
0.0
 11
5.2555486392
 21
3.8579831503
 31
0.0
  0
LINE
  5
2E3
330
1F
100
AcDbEntity
  8
0
  6
Continuous
 62
     7
370
    15
100
AcDbLine
 10
5.2548486393
 20
3.8579831503
 30
0.0
 11
5.2548486393
 21
3.8677334377
 31
0.0
  0
LINE
  5
2E4
330
1F
100
AcDbEntity
  8
0
  6
Continuous
 62
     7
370
    15
100
AcDbLine
 10
5.2962486412
 20
3.8677331627
 30
0.0
 11
5.2962486412
 21
3.8579331559
 31
0.0
  0
LINE
  5
2E5
330
1F
100
AcDbEntity
  8
0
  6
Continuous
 62
     7
370
    15
100
AcDbLine
 10
5.2962486412
 20
3.8579331559
 30
0.0
 11
5.2955486413
 21
3.8579331559
 31
0.0
  0
LINE
  5
2E6
330
1F
100
AcDbEntity
  8
0
  6
Continuous
 62
     7
370
    15
100
AcDbLine
 10
5.2955486413
 20
3.8342331597
 30
0.0
 11
5.2955486413
 21
3.8579331559
 31
0.0
  0
LINE
  5
2E7
330
1F
100
AcDbEntity
  8
0
  6
Continuous
 62
     7
370
    15
100
AcDbLine
 10
5.2962486412
 20
3.8342331597
 30
0.0
 11
5.2955486413
 21
3.8342331597
 31
0.0
  0
LINE
  5
2E8
330
1F
100
AcDbEntity
  8
0
  6
Continuous
 62
     7
370
    15
100
AcDbLine
 10
5.2962486412
 20
3.8342331597
 30
0.0
 11
5.2962486412
 21
3.8244331529
 31
0.0
  0
LINE
  5
2E9
330
1F
100
AcDbEntity
  8
0
  6
Continuous
 62
     7
370
    15
100
AcDbLine
 10
5.2555486392
 20
3.8343831613
 30
0.0
 11
5.2555486392
 21
3.8579831503
 31
0.0
  0
LINE
  5
2EA
330
1F
100
AcDbEntity
  8
0
  6
Continuous
 62
     7
370
    15
100
AcDbLine
 10
5.2555486392
 20
3.6459331549
 30
0.0
 11
5.2955486413
 21
3.6459331549
 31
0.0
  0
LINE
  5
2EB
330
1F
100
AcDbEntity
  8
0
  6
Continuous
 62
     7
370
    15
100
AcDbLine
 10
5.2548486393
 20
3.7004831564
 30
0.0
 11
5.2555486392
 21
3.7004831564
 31
0.0
  0
LINE
  5
2EC
330
1F
100
AcDbEntity
  8
0
  6
Continuous
 62
     7
370
    15
100
AcDbLine
 10
5.2955486413
 20
3.6459331549
 30
0.0
 11
5.2955486413
 21
3.7004331528
 31
0.0
  0
LINE
  5
2ED
330
1F
100
AcDbEntity
  8
0
  6
Continuous
 62
     7
370
    15
100
AcDbLine
 10
5.2962486412
 20
3.7004331528
 30
0.0
 11
5.2955486413
 21
3.7004331528
 31
0.0
  0
LINE
  5
2EE
330
1F
100
AcDbEntity
  8
0
  6
Continuous
 62
     7
370
    15
100
AcDbLine
 10
5.2962486412
 20
3.710233155
 30
0.0
 11
5.2962486412
 21
3.7004331528
 31
0.0
  0
LINE
  5
2EF
330
1F
100
AcDbEntity
  8
0
  6
Continuous
 62
     7
370
    15
100
AcDbLine
 10
5.2548486393
 20
3.7004831564
 30
0.0
 11
5.2548486393
 21
3.7102334392
 31
0.0
  0
LINE
  5
2F0
330
1F
100
AcDbEntity
  8
0
  6
Continuous
 62
     7
370
    15
100
AcDbLine
 10
5.2555486392
 20
3.6459331549
 30
0.0
 11
5.2555486392
 21
3.7004831564
 31
0.0
  0
LINE
  5
2F1
330
1F
100
AcDbEntity
  8
0
  6
Continuous
 62
     7
370
    15
100
AcDbLine
 10
5.2548486393
 20
3.6799340555
 30
0.0
 11
5.2548486393
 21
3.7004831564
 31
0.0
  0
LINE
  5
2F2
330
1F
100
AcDbEntity
  8
0
  6
Continuous
 62
     7
370
    15
100
AcDbLine
 10
5.2548486393
 20
3.7555831516
 30
0.0
 11
5.2548486393
 21
3.779283157
 31
0.0
  0
LINE
  5
2F3
330
1F
100
AcDbEntity
  8
0
  6
Continuous
 62
     7
370
    15
100
AcDbLine
 10
5.2548486393
 20
3.8343831613
 30
0.0
 11
5.2548486393
 21
3.8579831503
 31
0.0
  0
LINE
  5
2F4
330
1F
100
AcDbEntity
  8
0
  6
Continuous
 62
     7
370
    15
100
AcDbLine
 10
5.2548486393
 20
3.9130831638
 30
0.0
 11
5.2548486393
 21
3.9366831528
 31
0.0
  0
LINE
  5
2F5
330
1F
100
AcDbEntity
  8
0
  6
Continuous
 62
     7
370
    15
100
AcDbLine
 10
5.2548486393
 20
3.9917831663
 30
0.0
 11
5.2548486393
 21
4.0154831625
 31
0.0
  0
LINE
  5
2F6
330
1F
100
AcDbEntity
  8
0
  6
Continuous
 62
     7
370
    15
100
AcDbLine
 10
5.2548486393
 20
4.0705831393
 30
0.0
 11
5.2548486393
 21
4.0941831467
 31
0.0
  0
LINE
  5
2F7
330
1F
100
AcDbEntity
  8
0
  6
Continuous
 62
     7
370
    15
100
AcDbLine
 10
5.2548486393
 20
4.1492831602
 30
0.0
 11
5.2548486393
 21
4.1729831564
 31
0.0
  0
LINE
  5
2F8
330
1F
100
AcDbEntity
  8
0
  6
Continuous
 62
     7
370
    15
100
AcDbLine
 10
5.2548486393
 20
4.2280831699
 30
0.0
 11
5.2548486393
 21
4.2516831406
 31
0.0
  0
LINE
  5
2F9
330
1F
100
AcDbEntity
  8
0
  6
Continuous
 62
     7
370
    15
100
AcDbLine
 10
5.2548486393
 20
4.3067831541
 30
0.0
 11
5.2548486393
 21
4.3303831614
 31
0.0
  0
LINE
  5
2FA
330
1F
100
AcDbEntity
  8
0
  6
Continuous
 62
     7
370
    15
100
AcDbLine
 10
5.2548486393
 20
4.3854831382
 30
0.0
 11
5.2548486393
 21
4.4091831711
 31
0.0
  0
LINE
  5
2FB
330
1F
100
AcDbEntity
  8
0
  6
Continuous
 62
     7
370
    15
100
AcDbLine
 10
5.2548486393
 20
4.4642831479
 30
0.0
 11
5.2548486393
 21
4.4878831553
 31
0.0
  0
LINE
  5
2FC
330
1F
100
AcDbEntity
  8
0
  6
Continuous
 62
     7
370
    15
100
AcDbLine
 10
5.2548486393
 20
4.5429831321
 30
0.0
 11
5.2548486393
 21
4.566683165
 31
0.0
  0
LINE
  5
2FD
330
1F
100
AcDbEntity
  8
0
  6
Continuous
 62
     7
370
    15
100
AcDbLine
 10
5.2548486393
 20
4.6217831418
 30
0.0
 11
5.2548486393
 21
4.6453831492
 31
0.0
  0
LINE
  5
2FE
330
1F
100
AcDbEntity
  8
0
  6
Continuous
 62
     7
370
    15
100
AcDbLine
 10
5.2548486393
 20
3.6799340555
 30
0.0
 11
5.2555486392
 21
3.6799340555
 31
0.0
  0
LINE
  5
2FF
330
1F
100
AcDbEntity
  8
0
  6
Continuous
 62
     7
370
    15
100
AcDbLine
 10
5.2960486413
 20
4.6274331899
 30
0.0
 11
5.2955486413
 21
4.6274331899
 31
0.0
  0
LINE
  5
300
330
1F
100
AcDbEntity
  8
0
  6
Continuous
 62
     7
370
    15
100
AcDbLine
 10
5.2960486413
 20
4.6453331364
 30
0.0
 11
5.2960486413
 21
4.6274331899
 31
0.0
  0
LINE
  5
301
330
1F
100
AcDbEntity
  8
0
  6
Continuous
 62
     7
370
    15
100
AcDbLine
 10
5.2962486412
 20
3.681833156
 30
0.0
 11
5.2955486413
 21
3.681833156
 31
0.0
  0
LINE
  5
302
330
1F
100
AcDbEntity
  8
0
  6
Continuous
 62
     7
370
    15
100
AcDbLine
 10
5.2962486412
 20
3.681833156
 30
0.0
 11
5.2962486412
 21
3.6458331549
 31
0.0
  0
LINE
  5
303
330
1F
100
AcDbEntity
  8
0
  6
Continuous
 62
     7
370
    15
100
AcDbLine
 10
5.2962486412
 20
3.6458331549
 30
0.0
 11
5.2955486413
 21
3.6458331549
 31
0.0
  0
LINE
  5
304
330
1F
100
AcDbEntity
  8
0
  6
Continuous
 62
     7
370
    15
100
AcDbLine
 10
5.2955486413
 20
3.6459331549
 30
0.0
 11
5.2955486413
 21
3.6458331549
 31
0.0
  0
LINE
  5
305
330
1F
100
AcDbEntity
  8
0
  6
Continuous
 62
     7
370
    15
100
AcDbLine
 10
5.2962486412
 20
3.7004331528
 30
0.0
 11
5.2962486412
 21
3.681833156
 31
0.0
  0
LINE
  5
306
330
1F
100
AcDbEntity
  8
0
  6
Continuous
 62
     7
370
    15
100
AcDbLine
 10
5.2555486392
 20
3.6459331549
 30
0.0
 11
5.2555486392
 21
3.6458331549
 31
0.0
  0
LINE
  5
307
330
1F
100
AcDbEntity
  8
0
  6
Continuous
 62
     7
370
    15
100
AcDbLine
 10
5.2548486393
 20
3.6458331549
 30
0.0
 11
5.2555486392
 21
3.6458331549
 31
0.0
  0
LINE
  5
308
330
1F
100
AcDbEntity
  8
0
  6
Continuous
 62
     7
370
    15
100
AcDbLine
 10
5.2548486393
 20
3.6734831548
 30
0.0
 11
5.2548486393
 21
3.6458331549
 31
0.0
  0
LINE
  5
309
330
1F
100
AcDbEntity
  8
0
  6
Continuous
 62
     7
370
    15
100
AcDbLine
 10
5.2548486393
 20
3.6734831548
 30
0.0
 11
5.2555486392
 21
3.6734831548
 31
0.0
  0
LINE
  5
30A
330
1F
100
AcDbEntity
  8
0
  6
Continuous
 62
     7
370
    15
100
AcDbLine
 10
5.2548486393
 20
3.679432255
 30
0.0
 11
5.2548486393
 21
3.6799340555
 31
0.0
  0
LINE
  5
30B
330
1F
100
AcDbEntity
  8
0
  6
Continuous
 62
     7
370
    15
100
AcDbLine
 10
5.2548486393
 20
3.679432255
 30
0.0
 11
5.2555486392
 21
3.679432255
 31
0.0
  0
LINE
  5
30C
330
1F
100
AcDbEntity
  8
0
  6
Continuous
 62
     7
370
    15
100
AcDbLine
 10
5.2962486412
 20
4.7004331866
 30
0.0
 11
5.2955486413
 21
4.7004331866
 31
0.0
  0
LINE
  5
30D
330
1F
100
AcDbEntity
  8
0
  6
Continuous
 62
     7
370
    15
100
AcDbLine
 10
5.2962486412
 20
4.7004331866
 30
0.0
 11
5.2962486412
 21
4.7003331611
 31
0.0
  0
LINE
  5
30E
330
1F
100
AcDbEntity
  8
0
  6
Continuous
 62
     7
370
    15
100
AcDbLine
 10
5.2548486393
 20
4.7005831515
 30
0.0
 11
5.2548486393
 21
4.700483126
 31
0.0
  0
LINE
  5
30F
330
1F
100
AcDbEntity
  8
0
  6
Continuous
 62
     7
370
    15
100
AcDbLine
 10
5.2548486393
 20
4.7005831515
 30
0.0
 11
5.2555486392
 21
4.7005831515
 31
0.0
  0
DIMENSION
  5
310
330
1F
100
AcDbEntity
  8
SLD-0
100
AcDbDimension
  2
_D_7
 10
5.2955486413
 20
5.4956061865
 30
0.0
 11
4.8217777751
 21
5.4956061865
 31
0.0
 70
   160
  1
(<>)
 71
     2
 42
-1.0
  3
SLDDIMSTYLE2
100
AcDbAlignedDimension
 13
5.2555486413
 23
4.9759331549
 33
0.0
 14
5.2955486413
 24
4.9759331549
 34
0.0
100
AcDbRotatedDimension
  0
ARC
  5
31F
330
1F
100
AcDbEntity
  8
0
  6
Continuous
 62
     7
370
    15
100
AcDbCircle
 10
7.8167343866
 20
4.0429331549
 30
0.0
 40
0.0177000000000005
100
AcDbArc
 50
90.0
 51
270.0
  0
LINE
  5
320
330
1F
100
AcDbEntity
  8
0
  6
Continuous
 62
     7
370
    15
100
AcDbLine
 10
7.7807343874
 20
4.0154331498
 30
0.0
 11
7.8167343866
 21
4.0154331498
 31
0.0
  0
ARC
  5
321
330
1F
100
AcDbEntity
  8
0
  6
Continuous
 62
     7
370
    15
100
AcDbCircle
 10
7.7807343866
 20
4.0429331549
 30
0.0
 40
0.0274999999999999
100
AcDbArc
 50
90.0
 51
270.0
  0
LINE
  5
322
330
1F
100
AcDbEntity
  8
0
  6
Continuous
 62
     7
370
    15
100
AcDbLine
 10
7.8167343866
 20
4.0606331676
 30
0.0
 11
7.8167343866
 21
4.0704331377
 31
0.0
  0
LINE
  5
323
330
1F
100
AcDbEntity
  8
0
  6
Continuous
 62
     7
370
    15
100
AcDbLine
 10
7.8167343866
 20
4.0154331498
 30
0.0
 11
7.8167343866
 21
4.0252331566
 31
0.0
  0
LINE
  5
324
330
1F
100
AcDbEntity
  8
0
  6
Continuous
 62
     7
370
    15
100
AcDbLine
 10
7.8167343866
 20
4.0704331377
 30
0.0
 11
7.7807343874
 21
4.0704331377
 31
0.0
  0
ARC
  5
325
330
1F
100
AcDbEntity
  8
0
  6
Continuous
 62
     7
370
    15
100
AcDbCircle
 10
7.8167343866
 20
4.2004331549
 30
0.0
 40
0.0177000000000005
100
AcDbArc
 50
90.0
 51
270.0
  0
LINE
  5
326
330
1F
100
AcDbEntity
  8
0
  6
Continuous
 62
     7
370
    15
100
AcDbLine
 10
7.8167343866
 20
4.1729331436
 30
0.0
 11
7.8167343866
 21
4.1827331504
 31
0.0
  0
LINE
  5
327
330
1F
100
AcDbEntity
  8
0
  6
Continuous
 62
     7
370
    15
100
AcDbLine
 10
7.7807343874
 20
4.1729331436
 30
0.0
 11
7.8167343866
 21
4.1729331436
 31
0.0
  0
ARC
  5
328
330
1F
100
AcDbEntity
  8
0
  6
Continuous
 62
     7
370
    15
100
AcDbCircle
 10
7.7807343866
 20
4.2004331549
 30
0.0
 40
0.0275000000000007
100
AcDbArc
 50
90.0
 51
270.0
  0
LINE
  5
329
330
1F
100
AcDbEntity
  8
0
  6
Continuous
 62
     7
370
    15
100
AcDbLine
 10
7.8167343866
 20
4.2181331615
 30
0.0
 11
7.8167343866
 21
4.2279331683
 31
0.0
  0
LINE
  5
32A
330
1F
100
AcDbEntity
  8
0
  6
Continuous
 62
     7
370
    15
100
AcDbLine
 10
7.8167343866
 20
4.2279331683
 30
0.0
 11
7.7807343874
 21
4.2279331683
 31
0.0
  0
ARC
  5
32B
330
1F
100
AcDbEntity
  8
0
  6
Continuous
 62
     7
370
    15
100
AcDbCircle
 10
7.8167343866
 20
4.2791331549
 30
0.0
 40
0.0177000000000005
100
AcDbArc
 50
90.0
 51
270.0
  0
LINE
  5
32C
330
1F
100
AcDbEntity
  8
0
  6
Continuous
 62
     7
370
    15
100
AcDbLine
 10
7.8167343866
 20
4.2516331645
 30
0.0
 11
7.8167343866
 21
4.2614331713
 31
0.0
  0
ARC
  5
32D
330
1F
100
AcDbEntity
  8
0
  6
Continuous
 62
     7
370
    15
100
AcDbCircle
 10
7.7807343866
 20
4.2791331549
 30
0.0
 40
0.0274999999999999
100
AcDbArc
 50
90.0
 51
270.0
  0
LINE
  5
32E
330
1F
100
AcDbEntity
  8
0
  6
Continuous
 62
     7
370
    15
100
AcDbLine
 10
7.8167343866
 20
4.2968331823
 30
0.0
 11
7.8167343866
 21
4.3066331891
 31
0.0
  0
LINE
  5
32F
330
1F
100
AcDbEntity
  8
0
  6
Continuous
 62
     7
370
    15
100
AcDbLine
 10
7.7807343874
 20
4.2516331645
 30
0.0
 11
7.8167343866
 21
4.2516331645
 31
0.0
  0
LINE
  5
330
330
1F
100
AcDbEntity
  8
0
  6
Continuous
 62
     7
370
    15
100
AcDbLine
 10
7.8167343866
 20
4.3066331891
 30
0.0
 11
7.7807343874
 21
4.3066331891
 31
0.0
  0
ARC
  5
331
330
1F
100
AcDbEntity
  8
0
  6
Continuous
 62
     7
370
    15
100
AcDbCircle
 10
7.8167343866
 20
4.3578331549
 30
0.0
 40
0.0177000000000005
100
AcDbArc
 50
90.0
 51
270.0
  0
LINE
  5
332
330
1F
100
AcDbEntity
  8
0
  6
Continuous
 62
     7
370
    15
100
AcDbLine
 10
7.8167343866
 20
4.3303331487
 30
0.0
 11
7.8167343866
 21
4.3401331555
 31
0.0
  0
ARC
  5
333
330
1F
100
AcDbEntity
  8
0
  6
Continuous
 62
     7
370
    15
100
AcDbCircle
 10
7.7807343866
 20
4.3578331549
 30
0.0
 40
0.0275000000000007
100
AcDbArc
 50
90.0
 51
270.0
  0
LINE
  5
334
330
1F
100
AcDbEntity
  8
0
  6
Continuous
 62
     7
370
    15
100
AcDbLine
 10
7.8167343866
 20
4.3755331665
 30
0.0
 11
7.8167343866
 21
4.3853331733
 31
0.0
  0
LINE
  5
335
330
1F
100
AcDbEntity
  8
0
  6
Continuous
 62
     7
370
    15
100
AcDbLine
 10
7.7807343874
 20
4.3303331487
 30
0.0
 11
7.8167343866
 21
4.3303331487
 31
0.0
  0
LINE
  5
336
330
1F
100
AcDbEntity
  8
0
  6
Continuous
 62
     7
370
    15
100
AcDbLine
 10
7.8167343866
 20
4.3853331733
 30
0.0
 11
7.7807343874
 21
4.3853331733
 31
0.0
  0
ARC
  5
337
330
1F
100
AcDbEntity
  8
0
  6
Continuous
 62
     7
370
    15
100
AcDbCircle
 10
7.8167343866
 20
3.7279331549
 30
0.0
 40
0.0177000000000005
100
AcDbArc
 50
90.0
 51
270.0
  0
LINE
  5
338
330
1F
100
AcDbEntity
  8
0
  6
Continuous
 62
     7
370
    15
100
AcDbLine
 10
7.8167343866
 20
3.7004331528
 30
0.0
 11
7.8167343866
 21
3.710233155
 31
0.0
  0
LINE
  5
339
330
1F
100
AcDbEntity
  8
0
  6
Continuous
 62
     7
370
    15
100
AcDbLine
 10
7.7807343874
 20
3.7004331528
 30
0.0
 11
7.8167343866
 21
3.7004331528
 31
0.0
  0
ARC
  5
33A
330
1F
100
AcDbEntity
  8
0
  6
Continuous
 62
     7
370
    15
100
AcDbCircle
 10
7.7807343866
 20
3.7279331549
 30
0.0
 40
0.0275000000000003
100
AcDbArc
 50
90.0
 51
270.0
  0
LINE
  5
33B
330
1F
100
AcDbEntity
  8
0
  6
Continuous
 62
     7
370
    15
100
AcDbLine
 10
7.8167343866
 20
3.7554331591
 30
0.0
 11
7.7807343874
 21
3.7554331591
 31
0.0
  0
LINE
  5
33C
330
1F
100
AcDbEntity
  8
0
  6
Continuous
 62
     7
370
    15
100
AcDbLine
 10
7.8167343866
 20
3.7456331523
 30
0.0
 11
7.8167343866
 21
3.7554331591
 31
0.0
  0
ARC
  5
33D
330
1F
100
AcDbEntity
  8
0
  6
Continuous
 62
     7
370
    15
100
AcDbCircle
 10
7.8167343866
 20
4.6729331549
 30
0.0
 40
0.0177000000000005
100
AcDbArc
 50
90.0
 51
270.0
  0
ARC
  5
33E
330
1F
100
AcDbEntity
  8
0
  6
Continuous
 62
     7
370
    15
100
AcDbCircle
 10
7.7807343866
 20
4.6729331549
 30
0.0
 40
0.0275000000000007
100
AcDbArc
 50
90.0
 51
270.0
  0
LINE
  5
33F
330
1F
100
AcDbEntity
  8
0
  6
Continuous
 62
     7
370
    15
100
AcDbLine
 10
7.8167343866
 20
4.7004331866
 30
0.0
 11
7.7807343874
 21
4.7004331866
 31
0.0
  0
LINE
  5
340
330
1F
100
AcDbEntity
  8
0
  6
Continuous
 62
     7
370
    15
100
AcDbLine
 10
7.8167343866
 20
4.6906331798
 30
0.0
 11
7.8167343866
 21
4.7004331866
 31
0.0
  0
LINE
  5
341
330
1F
100
AcDbEntity
  8
0
  6
Continuous
 62
     7
370
    15
100
AcDbLine
 10
7.7807343874
 20
4.6454331619
 30
0.0
 11
7.8167343866
 21
4.6454331619
 31
0.0
  0
LINE
  5
342
330
1F
100
AcDbEntity
  8
0
  6
Continuous
 62
     7
370
    15
100
AcDbLine
 10
7.8167343866
 20
4.6454331619
 30
0.0
 11
7.8167343866
 21
4.6552331687
 31
0.0
  0
ARC
  5
343
330
1F
100
AcDbEntity
  8
0
  6
Continuous
 62
     7
370
    15
100
AcDbCircle
 10
7.8167343866
 20
4.1216331549
 30
0.0
 40
0.0177000000000005
100
AcDbArc
 50
90.0
 51
270.0
  0
ARC
  5
344
330
1F
100
AcDbEntity
  8
0
  6
Continuous
 62
     7
370
    15
100
AcDbCircle
 10
7.7807343866
 20
4.1216331549
 30
0.0
 40
0.0274999999999999
100
AcDbArc
 50
90.0
 51
270.0
  0
LINE
  5
345
330
1F
100
AcDbEntity
  8
0
  6
Continuous
 62
     7
370
    15
100
AcDbLine
 10
7.8167343866
 20
4.1393331518
 30
0.0
 11
7.8167343866
 21
4.1491331586
 31
0.0
  0
LINE
  5
346
330
1F
100
AcDbEntity
  8
0
  6
Continuous
 62
     7
370
    15
100
AcDbLine
 10
7.7807343874
 20
4.0941331706
 30
0.0
 11
7.8167343866
 21
4.0941331706
 31
0.0
  0
LINE
  5
347
330
1F
100
AcDbEntity
  8
0
  6
Continuous
 62
     7
370
    15
100
AcDbLine
 10
7.8167343866
 20
4.0941331706
 30
0.0
 11
7.8167343866
 21
4.1039331407
 31
0.0
  0
LINE
  5
348
330
1F
100
AcDbEntity
  8
0
  6
Continuous
 62
     7
370
    15
100
AcDbLine
 10
7.8167343866
 20
4.1491331586
 30
0.0
 11
7.7807343874
 21
4.1491331586
 31
0.0
  0
ARC
  5
349
330
1F
100
AcDbEntity
  8
0
  6
Continuous
 62
     7
370
    15
100
AcDbCircle
 10
7.7807343866
 20
3.9641331549
 30
0.0
 40
0.0275000000000003
100
AcDbArc
 50
90.0
 51
270.0
  0
LINE
  5
34A
330
1F
100
AcDbEntity
  8
0
  6
Continuous
 62
     7
370
    15
100
AcDbLine
 10
7.8167343866
 20
3.9366331584
 30
0.0
 11
7.8167343866
 21
3.9464331469
 31
0.0
  0
ARC
  5
34B
330
1F
100
AcDbEntity
  8
0
  6
Continuous
 62
     7
370
    15
100
AcDbCircle
 10
7.8167343866
 20
3.9641331549
 30
0.0
 40
0.0177
100
AcDbArc
 50
90.0
 51
270.0
  0
LINE
  5
34C
330
1F
100
AcDbEntity
  8
0
  6
Continuous
 62
     7
370
    15
100
AcDbLine
 10
7.8167343866
 20
3.9818331579
 30
0.0
 11
7.8167343866
 21
3.9916331647
 31
0.0
  0
LINE
  5
34D
330
1F
100
AcDbEntity
  8
0
  6
Continuous
 62
     7
370
    15
100
AcDbLine
 10
7.7807343874
 20
3.9366331584
 30
0.0
 11
7.8167343866
 21
3.9366331584
 31
0.0
  0
LINE
  5
34E
330
1F
100
AcDbEntity
  8
0
  6
Continuous
 62
     7
370
    15
100
AcDbLine
 10
7.8167343866
 20
3.9916331647
 30
0.0
 11
7.7807343874
 21
3.9916331647
 31
0.0
  0
LINE
  5
34F
330
1F
100
AcDbEntity
  8
0
  6
Continuous
 62
     7
370
    15
100
AcDbLine
 10
7.7807343874
 20
3.8579331559
 30
0.0
 11
7.8167343866
 21
3.8579331559
 31
0.0
  0
ARC
  5
350
330
1F
100
AcDbEntity
  8
0
  6
Continuous
 62
     7
370
    15
100
AcDbCircle
 10
7.7807343866
 20
3.8854331549
 30
0.0
 40
0.0275000000000003
100
AcDbArc
 50
90.0
 51
270.0
  0
LINE
  5
351
330
1F
100
AcDbEntity
  8
0
  6
Continuous
 62
     7
370
    15
100
AcDbLine
 10
7.8167343866
 20
3.9129331622
 30
0.0
 11
7.7807343874
 21
3.9129331622
 31
0.0
  0
LINE
  5
352
330
1F
100
AcDbEntity
  8
0
  6
Continuous
 62
     7
370
    15
100
AcDbLine
 10
7.8167343866
 20
3.9031331554
 30
0.0
 11
7.8167343866
 21
3.9129331622
 31
0.0
  0
LINE
  5
353
330
1F
100
AcDbEntity
  8
0
  6
Continuous
 62
     7
370
    15
100
AcDbLine
 10
7.8167343866
 20
3.8579331559
 30
0.0
 11
7.8167343866
 21
3.8677331627
 31
0.0
  0
ARC
  5
354
330
1F
100
AcDbEntity
  8
0
  6
Continuous
 62
     7
370
    15
100
AcDbCircle
 10
7.8167343866
 20
3.8854331549
 30
0.0
 40
0.0177000000000005
100
AcDbArc
 50
90.0
 51
270.0
  0
ARC
  5
355
330
1F
100
AcDbEntity
  8
0
  6
Continuous
 62
     7
370
    15
100
AcDbCircle
 10
7.7807343866
 20
3.8067331549
 30
0.0
 40
0.0275000000000003
100
AcDbArc
 50
90.0
 51
270.0
  0
LINE
  5
356
330
1F
100
AcDbEntity
  8
0
  6
Continuous
 62
     7
370
    15
100
AcDbLine
 10
7.7807343874
 20
3.7792331534
 30
0.0
 11
7.8167343866
 21
3.7792331534
 31
0.0
  0
LINE
  5
357
330
1F
100
AcDbEntity
  8
0
  6
Continuous
 62
     7
370
    15
100
AcDbLine
 10
7.8167343866
 20
3.7792331534
 30
0.0
 11
7.8167343866
 21
3.789033151
 31
0.0
  0
LINE
  5
358
330
1F
100
AcDbEntity
  8
0
  6
Continuous
 62
     7
370
    15
100
AcDbLine
 10
7.8167343866
 20
3.8342331597
 30
0.0
 11
7.7807343874
 21
3.8342331597
 31
0.0
  0
LINE
  5
359
330
1F
100
AcDbEntity
  8
0
  6
Continuous
 62
     7
370
    15
100
AcDbLine
 10
7.8167343866
 20
3.8244331529
 30
0.0
 11
7.8167343866
 21
3.8342331597
 31
0.0
  0
ARC
  5
35A
330
1F
100
AcDbEntity
  8
0
  6
Continuous
 62
     7
370
    15
100
AcDbCircle
 10
7.8167343866
 20
3.8067331549
 30
0.0
 40
0.0177
100
AcDbArc
 50
90.0
 51
270.0
  0
LINE
  5
35B
330
1F
100
AcDbEntity
  8
0
  6
Continuous
 62
     7
370
    15
100
AcDbLine
 10
7.7807343874
 20
4.4878331426
 30
0.0
 11
7.8167343866
 21
4.4878331426
 31
0.0
  0
ARC
  5
35C
330
1F
100
AcDbEntity
  8
0
  6
Continuous
 62
     7
370
    15
100
AcDbCircle
 10
7.7807343866
 20
4.5153331549
 30
0.0
 40
0.0274999999999999
100
AcDbArc
 50
90.0
 51
270.0
  0
LINE
  5
35D
330
1F
100
AcDbEntity
  8
0
  6
Continuous
 62
     7
370
    15
100
AcDbLine
 10
7.8167343866
 20
4.5428331672
 30
0.0
 11
7.7807343874
 21
4.5428331672
 31
0.0
  0
ARC
  5
35E
330
1F
100
AcDbEntity
  8
0
  6
Continuous
 62
     7
370
    15
100
AcDbCircle
 10
7.8167343866
 20
4.5153331549
 30
0.0
 40
0.0177000000000005
100
AcDbArc
 50
90.0
 51
270.0
  0
LINE
  5
35F
330
1F
100
AcDbEntity
  8
0
  6
Continuous
 62
     7
370
    15
100
AcDbLine
 10
7.8167343866
 20
4.5330331604
 30
0.0
 11
7.8167343866
 21
4.5428331672
 31
0.0
  0
LINE
  5
360
330
1F
100
AcDbEntity
  8
0
  6
Continuous
 62
     7
370
    15
100
AcDbLine
 10
7.8167343866
 20
4.4878331426
 30
0.0
 11
7.8167343866
 21
4.4976331493
 31
0.0
  0
LINE
  5
361
330
1F
100
AcDbEntity
  8
0
  6
Continuous
 62
     7
370
    15
100
AcDbLine
 10
7.7807343874
 20
4.4091331584
 30
0.0
 11
7.8167343866
 21
4.4091331584
 31
0.0
  0
ARC
  5
362
330
1F
100
AcDbEntity
  8
0
  6
Continuous
 62
     7
370
    15
100
AcDbCircle
 10
7.7807343866
 20
4.4366331549
 30
0.0
 40
0.0275000000000007
100
AcDbArc
 50
90.0
 51
270.0
  0
ARC
  5
363
330
1F
100
AcDbEntity
  8
0
  6
Continuous
 62
     7
370
    15
100
AcDbCircle
 10
7.8167343866
 20
4.4366331549
 30
0.0
 40
0.0177000000000005
100
AcDbArc
 50
90.0
 51
270.0
  0
LINE
  5
364
330
1F
100
AcDbEntity
  8
0
  6
Continuous
 62
     7
370
    15
100
AcDbLine
 10
7.8167343866
 20
4.4543331762
 30
0.0
 11
7.8167343866
 21
4.464133183
 31
0.0
  0
LINE
  5
365
330
1F
100
AcDbEntity
  8
0
  6
Continuous
 62
     7
370
    15
100
AcDbLine
 10
7.8167343866
 20
4.4091331584
 30
0.0
 11
7.8167343866
 21
4.4189331652
 31
0.0
  0
LINE
  5
366
330
1F
100
AcDbEntity
  8
0
  6
Continuous
 62
     7
370
    15
100
AcDbLine
 10
7.8167343866
 20
4.464133183
 30
0.0
 11
7.7807343874
 21
4.464133183
 31
0.0
  0
ARC
  5
367
330
1F
100
AcDbEntity
  8
0
  6
Continuous
 62
     7
370
    15
100
AcDbCircle
 10
7.7807343866
 20
4.5941331549
 30
0.0
 40
0.0274999999999999
100
AcDbArc
 50
90.0
 51
270.0
  0
LINE
  5
368
330
1F
100
AcDbEntity
  8
0
  6
Continuous
 62
     7
370
    15
100
AcDbLine
 10
7.8167343866
 20
4.6216331769
 30
0.0
 11
7.7807343874
 21
4.6216331769
 31
0.0
  0
LINE
  5
369
330
1F
100
AcDbEntity
  8
0
  6
Continuous
 62
     7
370
    15
100
AcDbLine
 10
7.8167343866
 20
4.5666331523
 30
0.0
 11
7.8167343866
 21
4.576433159
 31
0.0
  0
LINE
  5
36A
330
1F
100
AcDbEntity
  8
0
  6
Continuous
 62
     7
370
    15
100
AcDbLine
 10
7.7807343874
 20
4.5666331523
 30
0.0
 11
7.8167343866
 21
4.5666331523
 31
0.0
  0
LINE
  5
36B
330
1F
100
AcDbEntity
  8
0
  6
Continuous
 62
     7
370
    15
100
AcDbLine
 10
7.8167343866
 20
4.6118331701
 30
0.0
 11
7.8167343866
 21
4.6216331769
 31
0.0
  0
ARC
  5
36C
330
1F
100
AcDbEntity
  8
0
  6
Continuous
 62
     7
370
    15
100
AcDbCircle
 10
7.8167343866
 20
4.5941331549
 30
0.0
 40
0.0177000000000005
100
AcDbArc
 50
90.0
 51
270.0
  0
ARC
  5
36D
330
1F
100
AcDbEntity
  8
0
  6
Continuous
 62
     7
370
    15
100
AcDbCircle
 10
7.6592343866
 20
3.6458331549
 30
0.0
 40
0.0177000000000005
100
AcDbArc
 50
0.0
 51
180.0
  0
LINE
  5
36E
330
1F
100
AcDbEntity
  8
0
  6
Continuous
 62
     7
370
    15
100
AcDbLine
 10
7.6317343804
 20
3.6458331549
 30
0.0
 11
7.6415343872
 21
3.6458331549
 31
0.0
  0
LINE
  5
36F
330
1F
100
AcDbEntity
  8
0
  6
Continuous
 62
     7
370
    15
100
AcDbLine
 10
7.6317343804
 20
3.681833156
 30
0.0
 11
7.6317343804
 21
3.6458331549
 31
0.0
  0
ARC
  5
370
330
1F
100
AcDbEntity
  8
0
  6
Continuous
 62
     7
370
    15
100
AcDbCircle
 10
7.6592343866
 20
3.6818331549
 30
0.0
 40
0.0274999999999999
100
AcDbArc
 50
0.0
 51
180.0
  0
LINE
  5
371
330
1F
100
AcDbEntity
  8
0
  6
Continuous
 62
     7
370
    15
100
AcDbLine
 10
7.6867343867
 20
3.6458331549
 30
0.0
 11
7.6867343867
 21
3.681833156
 31
0.0
  0
LINE
  5
372
330
1F
100
AcDbEntity
  8
0
  6
Continuous
 62
     7
370
    15
100
AcDbLine
 10
7.676934389
 20
3.6458331549
 30
0.0
 11
7.6867343867
 21
3.6458331549
 31
0.0
  0
ARC
  5
373
330
1F
100
AcDbEntity
  8
0
  6
Continuous
 62
     7
370
    15
100
AcDbCircle
 10
7.5805343866
 20
3.6458331549
 30
0.0
 40
0.0177000000000005
100
AcDbArc
 50
0.0
 51
180.0
  0
LINE
  5
374
330
1F
100
AcDbEntity
  8
0
  6
Continuous
 62
     7
370
    15
100
AcDbLine
 10
7.5530343779
 20
3.6458331549
 30
0.0
 11
7.5628343846
 21
3.6458331549
 31
0.0
  0
LINE
  5
375
330
1F
100
AcDbEntity
  8
0
  6
Continuous
 62
     7
370
    15
100
AcDbLine
 10
7.5530343779
 20
3.681833156
 30
0.0
 11
7.5530343779
 21
3.6458331549
 31
0.0
  0
ARC
  5
376
330
1F
100
AcDbEntity
  8
0
  6
Continuous
 62
     7
370
    15
100
AcDbCircle
 10
7.5805343866
 20
3.6818331549
 30
0.0
 40
0.0274999999999999
100
AcDbArc
 50
0.0
 51
180.0
  0
LINE
  5
377
330
1F
100
AcDbEntity
  8
0
  6
Continuous
 62
     7
370
    15
100
AcDbLine
 10
7.6080343842
 20
3.6458331549
 30
0.0
 11
7.6080343842
 21
3.681833156
 31
0.0
  0
LINE
  5
378
330
1F
100
AcDbEntity
  8
0
  6
Continuous
 62
     7
370
    15
100
AcDbLine
 10
7.5982343957
 20
3.6458331549
 30
0.0
 11
7.6080343842
 21
3.6458331549
 31
0.0
  0
ARC
  5
379
330
1F
100
AcDbEntity
  8
0
  6
Continuous
 62
     7
370
    15
100
AcDbCircle
 10
7.5017343866
 20
3.6458331549
 30
0.0
 40
0.0177000000000005
100
AcDbArc
 50
0.0
 51
180.0
  0
LINE
  5
37A
330
1F
100
AcDbEntity
  8
0
  6
Continuous
 62
     7
370
    15
100
AcDbLine
 10
7.4742343865
 20
3.6458331549
 30
0.0
 11
7.4840343933
 21
3.6458331549
 31
0.0
  0
LINE
  5
37B
330
1F
100
AcDbEntity
  8
0
  6
Continuous
 62
     7
370
    15
100
AcDbLine
 10
7.4742343865
 20
3.681833156
 30
0.0
 11
7.4742343865
 21
3.6458331549
 31
0.0
  0
ARC
  5
37C
330
1F
100
AcDbEntity
  8
0
  6
Continuous
 62
     7
370
    15
100
AcDbCircle
 10
7.5017343866
 20
3.6818331549
 30
0.0
 40
0.0274999999999999
100
AcDbArc
 50
0.0
 51
180.0
  0
LINE
  5
37D
330
1F
100
AcDbEntity
  8
0
  6
Continuous
 62
     7
370
    15
100
AcDbLine
 10
7.5292343928
 20
3.6458331549
 30
0.0
 11
7.5292343928
 21
3.681833156
 31
0.0
  0
LINE
  5
37E
330
1F
100
AcDbEntity
  8
0
  6
Continuous
 62
     7
370
    15
100
AcDbLine
 10
7.519434386
 20
3.6458331549
 30
0.0
 11
7.5292343928
 21
3.6458331549
 31
0.0
  0
LINE
  5
37F
330
1F
100
AcDbEntity
  8
0
  6
Continuous
 62
     7
370
    15
100
AcDbLine
 10
7.4407343835
 20
3.6458331549
 30
0.0
 11
7.4505343903
 21
3.6458331549
 31
0.0
  0
ARC
  5
380
330
1F
100
AcDbEntity
  8
0
  6
Continuous
 62
     7
370
    15
100
AcDbCircle
 10
7.4230343866
 20
3.6458331549
 30
0.0
 40
0.0177000000000005
100
AcDbArc
 50
0.0
 51
180.0
  0
LINE
  5
381
330
1F
100
AcDbEntity
  8
0
  6
Continuous
 62
     7
370
    15
100
AcDbLine
 10
7.3955344023
 20
3.6458331549
 30
0.0
 11
7.4053343724
 21
3.6458331549
 31
0.0
  0
LINE
  5
382
330
1F
100
AcDbEntity
  8
0
  6
Continuous
 62
     7
370
    15
100
AcDbLine
 10
7.3955344023
 20
3.681833156
 30
0.0
 11
7.3955344023
 21
3.6458331549
 31
0.0
  0
ARC
  5
383
330
1F
100
AcDbEntity
  8
0
  6
Continuous
 62
     7
370
    15
100
AcDbCircle
 10
7.4230343866
 20
3.6818331549
 30
0.0
 40
0.0274999999999999
100
AcDbArc
 50
0.0
 51
180.0
  0
LINE
  5
384
330
1F
100
AcDbEntity
  8
0
  6
Continuous
 62
     7
370
    15
100
AcDbLine
 10
7.4505343903
 20
3.6458331549
 30
0.0
 11
7.4505343903
 21
3.681833156
 31
0.0
  0
LINE
  5
385
330
1F
100
AcDbEntity
  8
0
  6
Continuous
 62
     7
370
    15
100
AcDbLine
 10
7.3619343738
 20
3.6458331549
 30
0.0
 11
7.3717343806
 21
3.6458331549
 31
0.0
  0
ARC
  5
386
330
1F
100
AcDbEntity
  8
0
  6
Continuous
 62
     7
370
    15
100
AcDbCircle
 10
7.3442343866
 20
3.6458331549
 30
0.0
 40
0.0177000000000005
100
AcDbArc
 50
0.0
 51
180.0
  0
LINE
  5
387
330
1F
100
AcDbEntity
  8
0
  6
Continuous
 62
     7
370
    15
100
AcDbLine
 10
7.3167343926
 20
3.6458331549
 30
0.0
 11
7.3265343994
 21
3.6458331549
 31
0.0
  0
LINE
  5
388
330
1F
100
AcDbEntity
  8
0
  6
Continuous
 62
     7
370
    15
100
AcDbLine
 10
7.3167343926
 20
3.681833156
 30
0.0
 11
7.3167343926
 21
3.6458331549
 31
0.0
  0
ARC
  5
389
330
1F
100
AcDbEntity
  8
0
  6
Continuous
 62
     7
370
    15
100
AcDbCircle
 10
7.3442343866
 20
3.6818331549
 30
0.0
 40
0.0274999999999999
100
AcDbArc
 50
0.0
 51
180.0
  0
LINE
  5
38A
330
1F
100
AcDbEntity
  8
0
  6
Continuous
 62
     7
370
    15
100
AcDbLine
 10
7.3717343806
 20
3.6458331549
 30
0.0
 11
7.3717343806
 21
3.681833156
 31
0.0
  0
LINE
  5
38B
330
1F
100
AcDbEntity
  8
0
  6
Continuous
 62
     7
370
    15
100
AcDbLine
 10
7.2832343896
 20
3.6458331549
 30
0.0
 11
7.2930343964
 21
3.6458331549
 31
0.0
  0
ARC
  5
38C
330
1F
100
AcDbEntity
  8
0
  6
Continuous
 62
     7
370
    15
100
AcDbCircle
 10
7.2655343866
 20
3.6458331549
 30
0.0
 40
0.0177000000000005
100
AcDbArc
 50
0.0
 51
180.0
  0
LINE
  5
38D
330
1F
100
AcDbEntity
  8
0
  6
Continuous
 62
     7
370
    15
100
AcDbLine
 10
7.2380343718
 20
3.6458331549
 30
0.0
 11
7.2478343785
 21
3.6458331549
 31
0.0
  0
LINE
  5
38E
330
1F
100
AcDbEntity
  8
0
  6
Continuous
 62
     7
370
    15
100
AcDbLine
 10
7.2380343718
 20
3.681833156
 30
0.0
 11
7.2380343718
 21
3.6458331549
 31
0.0
  0
ARC
  5
38F
330
1F
100
AcDbEntity
  8
0
  6
Continuous
 62
     7
370
    15
100
AcDbCircle
 10
7.2655343866
 20
3.6818331549
 30
0.0
 40
0.0274999999999999
100
AcDbArc
 50
0.0
 51
180.0
  0
LINE
  5
390
330
1F
100
AcDbEntity
  8
0
  6
Continuous
 62
     7
370
    15
100
AcDbLine
 10
7.2930343964
 20
3.6458331549
 30
0.0
 11
7.2930343964
 21
3.681833156
 31
0.0
  0
ARC
  5
391
330
1F
100
AcDbEntity
  8
0
  6
Continuous
 62
     7
370
    15
100
AcDbCircle
 10
7.1868343866
 20
3.6458331549
 30
0.0
 40
0.0177000000000005
100
AcDbArc
 50
0.0
 51
180.0
  0
LINE
  5
392
330
1F
100
AcDbEntity
  8
0
  6
Continuous
 62
     7
370
    15
100
AcDbLine
 10
7.1593343876
 20
3.6458331549
 30
0.0
 11
7.1691343944
 21
3.6458331549
 31
0.0
  0
LINE
  5
393
330
1F
100
AcDbEntity
  8
0
  6
Continuous
 62
     7
370
    15
100
AcDbLine
 10
7.1593343876
 20
3.681833156
 30
0.0
 11
7.1593343876
 21
3.6458331549
 31
0.0
  0
LINE
  5
394
330
1F
100
AcDbEntity
  8
0
  6
Continuous
 62
     7
370
    15
100
AcDbLine
 10
7.2143343755
 20
3.6458331549
 30
0.0
 11
7.2143343755
 21
3.681833156
 31
0.0
  0
ARC
  5
395
330
1F
100
AcDbEntity
  8
0
  6
Continuous
 62
     7
370
    15
100
AcDbCircle
 10
7.1868343866
 20
3.6818331549
 30
0.0
 40
0.0274999999999999
100
AcDbArc
 50
0.0
 51
180.0
  0
LINE
  5
396
330
1F
100
AcDbEntity
  8
0
  6
Continuous
 62
     7
370
    15
100
AcDbLine
 10
7.2045343688
 20
3.6458331549
 30
0.0
 11
7.2143343755
 21
3.6458331549
 31
0.0
  0
ARC
  5
397
330
1F
100
AcDbEntity
  8
0
  6
Continuous
 62
     7
370
    15
100
AcDbCircle
 10
7.1080343866
 20
3.6458331549
 30
0.0
 40
0.0177000000000005
100
AcDbArc
 50
0.0
 51
180.0
  0
LINE
  5
398
330
1F
100
AcDbEntity
  8
0
  6
Continuous
 62
     7
370
    15
100
AcDbLine
 10
7.0805343779
 20
3.6458331549
 30
0.0
 11
7.0903343847
 21
3.6458331549
 31
0.0
  0
LINE
  5
399
330
1F
100
AcDbEntity
  8
0
  6
Continuous
 62
     7
370
    15
100
AcDbLine
 10
7.0805343779
 20
3.681833156
 30
0.0
 11
7.0805343779
 21
3.6458331549
 31
0.0
  0
ARC
  5
39A
330
1F
100
AcDbEntity
  8
0
  6
Continuous
 62
     7
370
    15
100
AcDbCircle
 10
7.1080343866
 20
3.6818331549
 30
0.0
 40
0.0274999999999999
100
AcDbArc
 50
0.0
 51
180.0
  0
LINE
  5
39B
330
1F
100
AcDbEntity
  8
0
  6
Continuous
 62
     7
370
    15
100
AcDbLine
 10
7.1355344025
 20
3.6458331549
 30
0.0
 11
7.1355344025
 21
3.681833156
 31
0.0
  0
LINE
  5
39C
330
1F
100
AcDbEntity
  8
0
  6
Continuous
 62
     7
370
    15
100
AcDbLine
 10
7.1257343957
 20
3.6458331549
 30
0.0
 11
7.1355344025
 21
3.6458331549
 31
0.0
  0
LINE
  5
39D
330
1F
100
AcDbEntity
  8
0
  6
Continuous
 62
     7
370
    15
100
AcDbLine
 10
6.9507344107
 20
4.576433159
 30
0.0
 11
6.9507344107
 21
4.5666331523
 31
0.0
  0
ARC
  5
39E
330
1F
100
AcDbEntity
  8
0
  6
Continuous
 62
     7
370
    15
100
AcDbCircle
 10
6.9507343866
 20
4.5941331549
 30
0.0
 40
0.0177000000000005
100
AcDbArc
 50
270.0
 51
90.0
  0
LINE
  5
39F
330
1F
100
AcDbEntity
  8
0
  6
Continuous
 62
     7
370
    15
100
AcDbLine
 10
6.9507344107
 20
4.6216331769
 30
0.0
 11
6.9507344107
 21
4.6118331701
 31
0.0
  0
LINE
  5
3A0
330
1F
100
AcDbEntity
  8
0
  6
Continuous
 62
     7
370
    15
100
AcDbLine
 10
6.9867343548
 20
4.6216331769
 30
0.0
 11
6.9507344107
 21
4.6216331769
 31
0.0
  0
ARC
  5
3A1
330
1F
100
AcDbEntity
  8
0
  6
Continuous
 62
     7
370
    15
100
AcDbCircle
 10
6.9867343866
 20
4.5941331549
 30
0.0
 40
0.0274999999999999
100
AcDbArc
 50
270.0
 51
90.0
  0
LINE
  5
3A2
330
1F
100
AcDbEntity
  8
0
  6
Continuous
 62
     7
370
    15
100
AcDbLine
 10
6.9507344107
 20
4.5666331523
 30
0.0
 11
6.9867343548
 21
4.5666331523
 31
0.0
  0
LINE
  5
3A3
330
1F
100
AcDbEntity
  8
0
  6
Continuous
 62
     7
370
    15
100
AcDbLine
 10
6.9507344107
 20
4.2614331713
 30
0.0
 11
6.9507344107
 21
4.2516331645
 31
0.0
  0
ARC
  5
3A4
330
1F
100
AcDbEntity
  8
0
  6
Continuous
 62
     7
370
    15
100
AcDbCircle
 10
6.9507343866
 20
4.2791331549
 30
0.0
 40
0.0177000000000005
100
AcDbArc
 50
270.0
 51
90.0
  0
LINE
  5
3A5
330
1F
100
AcDbEntity
  8
0
  6
Continuous
 62
     7
370
    15
100
AcDbLine
 10
6.9507344107
 20
4.3066331891
 30
0.0
 11
6.9507344107
 21
4.2968331823
 31
0.0
  0
LINE
  5
3A6
330
1F
100
AcDbEntity
  8
0
  6
Continuous
 62
     7
370
    15
100
AcDbLine
 10
6.9867343548
 20
4.3066331891
 30
0.0
 11
6.9507344107
 21
4.3066331891
 31
0.0
  0
ARC
  5
3A7
330
1F
100
AcDbEntity
  8
0
  6
Continuous
 62
     7
370
    15
100
AcDbCircle
 10
6.9867343866
 20
4.2791331549
 30
0.0
 40
0.0275000000000007
100
AcDbArc
 50
270.0
 51
90.0
  0
LINE
  5
3A8
330
1F
100
AcDbEntity
  8
0
  6
Continuous
 62
     7
370
    15
100
AcDbLine
 10
6.9507344107
 20
4.2516331645
 30
0.0
 11
6.9867343548
 21
4.2516331645
 31
0.0
  0
LINE
  5
3A9
330
1F
100
AcDbEntity
  8
0
  6
Continuous
 62
     7
370
    15
100
AcDbLine
 10
6.9507344107
 20
4.1827331504
 30
0.0
 11
6.9507344107
 21
4.1729331436
 31
0.0
  0
ARC
  5
3AA
330
1F
100
AcDbEntity
  8
0
  6
Continuous
 62
     7
370
    15
100
AcDbCircle
 10
6.9507343866
 20
4.2004331549
 30
0.0
 40
0.0177000000000005
100
AcDbArc
 50
270.0
 51
90.0
  0
LINE
  5
3AB
330
1F
100
AcDbEntity
  8
0
  6
Continuous
 62
     7
370
    15
100
AcDbLine
 10
6.9507344107
 20
4.2279331683
 30
0.0
 11
6.9507344107
 21
4.2181331615
 31
0.0
  0
LINE
  5
3AC
330
1F
100
AcDbEntity
  8
0
  6
Continuous
 62
     7
370
    15
100
AcDbLine
 10
6.9867343548
 20
4.2279331683
 30
0.0
 11
6.9507344107
 21
4.2279331683
 31
0.0
  0
LINE
  5
3AD
330
1F
100
AcDbEntity
  8
0
  6
Continuous
 62
     7
370
    15
100
AcDbLine
 10
6.9507344107
 20
4.1729331436
 30
0.0
 11
6.9867343548
 21
4.1729331436
 31
0.0
  0
ARC
  5
3AE
330
1F
100
AcDbEntity
  8
0
  6
Continuous
 62
     7
370
    15
100
AcDbCircle
 10
6.9867343866
 20
4.2004331549
 30
0.0
 40
0.0274999999999999
100
AcDbArc
 50
270.0
 51
90.0
  0
LINE
  5
3AF
330
1F
100
AcDbEntity
  8
0
  6
Continuous
 62
     7
370
    15
100
AcDbLine
 10
6.9507344107
 20
4.3401331555
 30
0.0
 11
6.9507344107
 21
4.3303331487
 31
0.0
  0
ARC
  5
3B0
330
1F
100
AcDbEntity
  8
0
  6
Continuous
 62
     7
370
    15
100
AcDbCircle
 10
6.9507343866
 20
4.3578331549
 30
0.0
 40
0.0177000000000005
100
AcDbArc
 50
270.0
 51
90.0
  0
LINE
  5
3B1
330
1F
100
AcDbEntity
  8
0
  6
Continuous
 62
     7
370
    15
100
AcDbLine
 10
6.9507344107
 20
4.3853331733
 30
0.0
 11
6.9507344107
 21
4.3755331665
 31
0.0
  0
LINE
  5
3B2
330
1F
100
AcDbEntity
  8
0
  6
Continuous
 62
     7
370
    15
100
AcDbLine
 10
6.9867343548
 20
4.3853331733
 30
0.0
 11
6.9507344107
 21
4.3853331733
 31
0.0
  0
ARC
  5
3B3
330
1F
100
AcDbEntity
  8
0
  6
Continuous
 62
     7
370
    15
100
AcDbCircle
 10
6.9867343866
 20
4.3578331549
 30
0.0
 40
0.0274999999999999
100
AcDbArc
 50
270.0
 51
90.0
  0
LINE
  5
3B4
330
1F
100
AcDbEntity
  8
0
  6
Continuous
 62
     7
370
    15
100
AcDbLine
 10
6.9507344107
 20
4.3303331487
 30
0.0
 11
6.9867343548
 21
4.3303331487
 31
0.0
  0
LINE
  5
3B5
330
1F
100
AcDbEntity
  8
0
  6
Continuous
 62
     7
370
    15
100
AcDbLine
 10
6.9507344107
 20
3.789033151
 30
0.0
 11
6.9507344107
 21
3.7792331534
 31
0.0
  0
ARC
  5
3B6
330
1F
100
AcDbEntity
  8
0
  6
Continuous
 62
     7
370
    15
100
AcDbCircle
 10
6.9507343866
 20
3.8067331549
 30
0.0
 40
0.0177
100
AcDbArc
 50
270.0
 51
90.0
  0
LINE
  5
3B7
330
1F
100
AcDbEntity
  8
0
  6
Continuous
 62
     7
370
    15
100
AcDbLine
 10
6.9507344107
 20
3.8342331597
 30
0.0
 11
6.9507344107
 21
3.8244331529
 31
0.0
  0
LINE
  5
3B8
330
1F
100
AcDbEntity
  8
0
  6
Continuous
 62
     7
370
    15
100
AcDbLine
 10
6.9867343548
 20
3.8342331597
 30
0.0
 11
6.9507344107
 21
3.8342331597
 31
0.0
  0
ARC
  5
3B9
330
1F
100
AcDbEntity
  8
0
  6
Continuous
 62
     7
370
    15
100
AcDbCircle
 10
6.9867343866
 20
3.8067331549
 30
0.0
 40
0.0275000000000003
100
AcDbArc
 50
270.0
 51
90.0
  0
LINE
  5
3BA
330
1F
100
AcDbEntity
  8
0
  6
Continuous
 62
     7
370
    15
100
AcDbLine
 10
6.9507344107
 20
3.7792331534
 30
0.0
 11
6.9867343548
 21
3.7792331534
 31
0.0
  0
LINE
  5
3BB
330
1F
100
AcDbEntity
  8
0
  6
Continuous
 62
     7
370
    15
100
AcDbLine
 10
6.9507344107
 20
3.9464331469
 30
0.0
 11
6.9507344107
 21
3.9366331584
 31
0.0
  0
ARC
  5
3BC
330
1F
100
AcDbEntity
  8
0
  6
Continuous
 62
     7
370
    15
100
AcDbCircle
 10
6.9507343866
 20
3.9641331549
 30
0.0
 40
0.0177
100
AcDbArc
 50
270.0
 51
90.0
  0
LINE
  5
3BD
330
1F
100
AcDbEntity
  8
0
  6
Continuous
 62
     7
370
    15
100
AcDbLine
 10
6.9507344107
 20
3.9916331647
 30
0.0
 11
6.9507344107
 21
3.9818331579
 31
0.0
  0
LINE
  5
3BE
330
1F
100
AcDbEntity
  8
0
  6
Continuous
 62
     7
370
    15
100
AcDbLine
 10
6.9867343548
 20
3.9916331647
 30
0.0
 11
6.9507344107
 21
3.9916331647
 31
0.0
  0
LINE
  5
3BF
330
1F
100
AcDbEntity
  8
0
  6
Continuous
 62
     7
370
    15
100
AcDbLine
 10
6.9507344107
 20
3.9366331584
 30
0.0
 11
6.9867343548
 21
3.9366331584
 31
0.0
  0
ARC
  5
3C0
330
1F
100
AcDbEntity
  8
0
  6
Continuous
 62
     7
370
    15
100
AcDbCircle
 10
6.9867343866
 20
3.9641331549
 30
0.0
 40
0.0275000000000003
100
AcDbArc
 50
270.0
 51
90.0
  0
LINE
  5
3C1
330
1F
100
AcDbEntity
  8
0
  6
Continuous
 62
     7
370
    15
100
AcDbLine
 10
6.9507344107
 20
4.4189331652
 30
0.0
 11
6.9507344107
 21
4.4091331584
 31
0.0
  0
ARC
  5
3C2
330
1F
100
AcDbEntity
  8
0
  6
Continuous
 62
     7
370
    15
100
AcDbCircle
 10
6.9507343866
 20
4.4366331549
 30
0.0
 40
0.0177000000000005
100
AcDbArc
 50
270.0
 51
90.0
  0
LINE
  5
3C3
330
1F
100
AcDbEntity
  8
0
  6
Continuous
 62
     7
370
    15
100
AcDbLine
 10
6.9507344107
 20
4.464133183
 30
0.0
 11
6.9507344107
 21
4.4543331762
 31
0.0
  0
LINE
  5
3C4
330
1F
100
AcDbEntity
  8
0
  6
Continuous
 62
     7
370
    15
100
AcDbLine
 10
6.9867343548
 20
4.464133183
 30
0.0
 11
6.9507344107
 21
4.464133183
 31
0.0
  0
LINE
  5
3C5
330
1F
100
AcDbEntity
  8
0
  6
Continuous
 62
     7
370
    15
100
AcDbLine
 10
6.9507344107
 20
4.4091331584
 30
0.0
 11
6.9867343548
 21
4.4091331584
 31
0.0
  0
ARC
  5
3C6
330
1F
100
AcDbEntity
  8
0
  6
Continuous
 62
     7
370
    15
100
AcDbCircle
 10
6.9867343866
 20
4.4366331549
 30
0.0
 40
0.0274999999999999
100
AcDbArc
 50
270.0
 51
90.0
  0
LINE
  5
3C7
330
1F
100
AcDbEntity
  8
0
  6
Continuous
 62
     7
370
    15
100
AcDbLine
 10
6.9507344107
 20
4.1039331407
 30
0.0
 11
6.9507344107
 21
4.0941331706
 31
0.0
  0
ARC
  5
3C8
330
1F
100
AcDbEntity
  8
0
  6
Continuous
 62
     7
370
    15
100
AcDbCircle
 10
6.9507343866
 20
4.1216331549
 30
0.0
 40
0.0177000000000005
100
AcDbArc
 50
270.0
 51
90.0
  0
LINE
  5
3C9
330
1F
100
AcDbEntity
  8
0
  6
Continuous
 62
     7
370
    15
100
AcDbLine
 10
6.9507344107
 20
4.1491331586
 30
0.0
 11
6.9507344107
 21
4.1393331518
 31
0.0
  0
LINE
  5
3CA
330
1F
100
AcDbEntity
  8
0
  6
Continuous
 62
     7
370
    15
100
AcDbLine
 10
6.9867343548
 20
4.1491331586
 30
0.0
 11
6.9507344107
 21
4.1491331586
 31
0.0
  0
LINE
  5
3CB
330
1F
100
AcDbEntity
  8
0
  6
Continuous
 62
     7
370
    15
100
AcDbLine
 10
6.9507344107
 20
4.0941331706
 30
0.0
 11
6.9867343548
 21
4.0941331706
 31
0.0
  0
ARC
  5
3CC
330
1F
100
AcDbEntity
  8
0
  6
Continuous
 62
     7
370
    15
100
AcDbCircle
 10
6.9867343866
 20
4.1216331549
 30
0.0
 40
0.0275000000000007
100
AcDbArc
 50
270.0
 51
90.0
  0
LINE
  5
3CD
330
1F
100
AcDbEntity
  8
0
  6
Continuous
 62
     7
370
    15
100
AcDbLine
 10
6.9507344107
 20
4.0252331566
 30
0.0
 11
6.9507344107
 21
4.0154331498
 31
0.0
  0
ARC
  5
3CE
330
1F
100
AcDbEntity
  8
0
  6
Continuous
 62
     7
370
    15
100
AcDbCircle
 10
6.9507343866
 20
4.0429331549
 30
0.0
 40
0.0177000000000005
100
AcDbArc
 50
270.0
 51
90.0
  0
LINE
  5
3CF
330
1F
100
AcDbEntity
  8
0
  6
Continuous
 62
     7
370
    15
100
AcDbLine
 10
6.9507344107
 20
4.0704331377
 30
0.0
 11
6.9507344107
 21
4.0606331676
 31
0.0
  0
LINE
  5
3D0
330
1F
100
AcDbEntity
  8
0
  6
Continuous
 62
     7
370
    15
100
AcDbLine
 10
6.9867343548
 20
4.0704331377
 30
0.0
 11
6.9507344107
 21
4.0704331377
 31
0.0
  0
LINE
  5
3D1
330
1F
100
AcDbEntity
  8
0
  6
Continuous
 62
     7
370
    15
100
AcDbLine
 10
6.9507344107
 20
4.0154331498
 30
0.0
 11
6.9867343548
 21
4.0154331498
 31
0.0
  0
ARC
  5
3D2
330
1F
100
AcDbEntity
  8
0
  6
Continuous
 62
     7
370
    15
100
AcDbCircle
 10
6.9867343866
 20
4.0429331549
 30
0.0
 40
0.0275000000000007
100
AcDbArc
 50
270.0
 51
90.0
  0
LINE
  5
3D3
330
1F
100
AcDbEntity
  8
0
  6
Continuous
 62
     7
370
    15
100
AcDbLine
 10
6.9507344107
 20
3.8677331627
 30
0.0
 11
6.9507344107
 21
3.8579331559
 31
0.0
  0
ARC
  5
3D4
330
1F
100
AcDbEntity
  8
0
  6
Continuous
 62
     7
370
    15
100
AcDbCircle
 10
6.9507343866
 20
3.8854331549
 30
0.0
 40
0.0177000000000005
100
AcDbArc
 50
270.0
 51
90.0
  0
LINE
  5
3D5
330
1F
100
AcDbEntity
  8
0
  6
Continuous
 62
     7
370
    15
100
AcDbLine
 10
6.9507344107
 20
3.9129331622
 30
0.0
 11
6.9507344107
 21
3.9031331554
 31
0.0
  0
LINE
  5
3D6
330
1F
100
AcDbEntity
  8
0
  6
Continuous
 62
     7
370
    15
100
AcDbLine
 10
6.9867343548
 20
3.9129331622
 30
0.0
 11
6.9507344107
 21
3.9129331622
 31
0.0
  0
LINE
  5
3D7
330
1F
100
AcDbEntity
  8
0
  6
Continuous
 62
     7
370
    15
100
AcDbLine
 10
6.9507344107
 20
3.8579331559
 30
0.0
 11
6.9867343548
 21
3.8579331559
 31
0.0
  0
ARC
  5
3D8
330
1F
100
AcDbEntity
  8
0
  6
Continuous
 62
     7
370
    15
100
AcDbCircle
 10
6.9867343866
 20
3.8854331549
 30
0.0
 40
0.0274999999999999
100
AcDbArc
 50
270.0
 51
90.0
  0
LINE
  5
3D9
330
1F
100
AcDbEntity
  8
0
  6
Continuous
 62
     7
370
    15
100
AcDbLine
 10
6.9507344107
 20
4.6551331432
 30
0.0
 11
6.9507344107
 21
4.6453331364
 31
0.0
  0
ARC
  5
3DA
330
1F
100
AcDbEntity
  8
0
  6
Continuous
 62
     7
370
    15
100
AcDbCircle
 10
6.9507343866
 20
4.6728331549
 30
0.0
 40
0.0177000000000005
100
AcDbArc
 50
270.0
 51
90.0
  0
LINE
  5
3DB
330
1F
100
AcDbEntity
  8
0
  6
Continuous
 62
     7
370
    15
100
AcDbLine
 10
6.9507344107
 20
4.7003331611
 30
0.0
 11
6.9507344107
 21
4.6905331543
 31
0.0
  0
LINE
  5
3DC
330
1F
100
AcDbEntity
  8
0
  6
Continuous
 62
     7
370
    15
100
AcDbLine
 10
6.9867343548
 20
4.7003331611
 30
0.0
 11
6.9507344107
 21
4.7003331611
 31
0.0
  0
LINE
  5
3DD
330
1F
100
AcDbEntity
  8
0
  6
Continuous
 62
     7
370
    15
100
AcDbLine
 10
6.9507344107
 20
4.6453331364
 30
0.0
 11
6.9867343548
 21
4.6453331364
 31
0.0
  0
ARC
  5
3DE
330
1F
100
AcDbEntity
  8
0
  6
Continuous
 62
     7
370
    15
100
AcDbCircle
 10
6.9867343866
 20
4.6728331549
 30
0.0
 40
0.0275000000000007
100
AcDbArc
 50
270.0
 51
90.0
  0
LINE
  5
3DF
330
1F
100
AcDbEntity
  8
0
  6
Continuous
 62
     7
370
    15
100
AcDbLine
 10
6.9507344107
 20
4.4976331493
 30
0.0
 11
6.9507344107
 21
4.4878331426
 31
0.0
  0
ARC
  5
3E0
330
1F
100
AcDbEntity
  8
0
  6
Continuous
 62
     7
370
    15
100
AcDbCircle
 10
6.9507343866
 20
4.5153331549
 30
0.0
 40
0.0177000000000005
100
AcDbArc
 50
270.0
 51
90.0
  0
LINE
  5
3E1
330
1F
100
AcDbEntity
  8
0
  6
Continuous
 62
     7
370
    15
100
AcDbLine
 10
6.9507344107
 20
4.5428331672
 30
0.0
 11
6.9507344107
 21
4.5330331604
 31
0.0
  0
LINE
  5
3E2
330
1F
100
AcDbEntity
  8
0
  6
Continuous
 62
     7
370
    15
100
AcDbLine
 10
6.9867343548
 20
4.5428331672
 30
0.0
 11
6.9507344107
 21
4.5428331672
 31
0.0
  0
LINE
  5
3E3
330
1F
100
AcDbEntity
  8
0
  6
Continuous
 62
     7
370
    15
100
AcDbLine
 10
6.9507344107
 20
4.4878331426
 30
0.0
 11
6.9867343548
 21
4.4878331426
 31
0.0
  0
ARC
  5
3E4
330
1F
100
AcDbEntity
  8
0
  6
Continuous
 62
     7
370
    15
100
AcDbCircle
 10
6.9867343866
 20
4.5153331549
 30
0.0
 40
0.0275000000000007
100
AcDbArc
 50
270.0
 51
90.0
  0
LINE
  5
3E5
330
1F
100
AcDbEntity
  8
0
  6
Continuous
 62
     7
370
    15
100
AcDbLine
 10
6.9507344107
 20
3.710233155
 30
0.0
 11
6.9507344107
 21
3.7004331528
 31
0.0
  0
ARC
  5
3E6
330
1F
100
AcDbEntity
  8
0
  6
Continuous
 62
     7
370
    15
100
AcDbCircle
 10
6.9507343866
 20
3.7279331549
 30
0.0
 40
0.0177000000000005
100
AcDbArc
 50
270.0
 51
90.0
  0
LINE
  5
3E7
330
1F
100
AcDbEntity
  8
0
  6
Continuous
 62
     7
370
    15
100
AcDbLine
 10
6.9507344107
 20
3.7554331591
 30
0.0
 11
6.9507344107
 21
3.7456331523
 31
0.0
  0
LINE
  5
3E8
330
1F
100
AcDbEntity
  8
0
  6
Continuous
 62
     7
370
    15
100
AcDbLine
 10
6.9867343548
 20
3.7554331591
 30
0.0
 11
6.9507344107
 21
3.7554331591
 31
0.0
  0
LINE
  5
3E9
330
1F
100
AcDbEntity
  8
0
  6
Continuous
 62
     7
370
    15
100
AcDbLine
 10
6.9507344107
 20
3.7004331528
 30
0.0
 11
6.9867343548
 21
3.7004331528
 31
0.0
  0
ARC
  5
3EA
330
1F
100
AcDbEntity
  8
0
  6
Continuous
 62
     7
370
    15
100
AcDbCircle
 10
6.9867343866
 20
3.7279331549
 30
0.0
 40
0.0274999999999999
100
AcDbArc
 50
270.0
 51
90.0
  0
LINE
  5
3EB
330
1F
100
AcDbEntity
  8
0
  6
Continuous
 62
     7
370
    15
100
AcDbLine
 10
6.9506343852
 20
4.8913331946
 30
0.0
 11
6.9506343852
 21
4.8815331878
 31
0.0
  0
ARC
  5
3EC
330
1F
100
AcDbEntity
  8
0
  6
Continuous
 62
     7
370
    15
100
AcDbCircle
 10
6.9506343866
 20
4.9090331549
 30
0.0
 40
0.0177000000000005
100
AcDbArc
 50
270.0
 51
90.0
  0
LINE
  5
3ED
330
1F
100
AcDbEntity
  8
0
  6
Continuous
 62
     7
370
    15
100
AcDbLine
 10
6.9506343852
 20
4.9365331391
 30
0.0
 11
6.9506343852
 21
4.9267331323
 31
0.0
  0
LINE
  5
3EE
330
1F
100
AcDbEntity
  8
0
  6
Continuous
 62
     7
370
    15
100
AcDbLine
 10
6.9866344026
 20
4.9365331391
 30
0.0
 11
6.9506343852
 21
4.9365331391
 31
0.0
  0
ARC
  5
3EF
330
1F
100
AcDbEntity
  8
0
  6
Continuous
 62
     7
370
    15
100
AcDbCircle
 10
6.9866343866
 20
4.9090331549
 30
0.0
 40
0.0274999999999999
100
AcDbArc
 50
270.0
 51
90.0
  0
LINE
  5
3F0
330
1F
100
AcDbEntity
  8
0
  6
Continuous
 62
     7
370
    15
100
AcDbLine
 10
6.9506343852
 20
4.8815331878
 30
0.0
 11
6.9866344026
 21
4.8815331878
 31
0.0
  0
LINE
  5
3F1
330
1F
100
AcDbEntity
  8
0
  6
Continuous
 62
     7
370
    15
100
AcDbLine
 10
6.9506343852
 20
4.8126331371
 30
0.0
 11
6.9506343852
 21
4.8028331303
 31
0.0
  0
ARC
  5
3F2
330
1F
100
AcDbEntity
  8
0
  6
Continuous
 62
     7
370
    15
100
AcDbCircle
 10
6.9506343866
 20
4.8303331549
 30
0.0
 40
0.0177000000000005
100
AcDbArc
 50
270.0
 51
90.0
  0
LINE
  5
3F3
330
1F
100
AcDbEntity
  8
0
  6
Continuous
 62
     7
370
    15
100
AcDbLine
 10
6.9506343852
 20
4.857833155
 30
0.0
 11
6.9506343852
 21
4.8480331482
 31
0.0
  0
LINE
  5
3F4
330
1F
100
AcDbEntity
  8
0
  6
Continuous
 62
     7
370
    15
100
AcDbLine
 10
6.9866344026
 20
4.857833155
 30
0.0
 11
6.9506343852
 21
4.857833155
 31
0.0
  0
ARC
  5
3F5
330
1F
100
AcDbEntity
  8
0
  6
Continuous
 62
     7
370
    15
100
AcDbCircle
 10
6.9866343866
 20
4.8303331549
 30
0.0
 40
0.0274999999999999
100
AcDbArc
 50
270.0
 51
90.0
  0
LINE
  5
3F6
330
1F
100
AcDbEntity
  8
0
  6
Continuous
 62
     7
370
    15
100
AcDbLine
 10
6.9506343852
 20
4.8028331303
 30
0.0
 11
6.9866344026
 21
4.8028331303
 31
0.0
  0
LINE
  5
3F7
330
1F
100
AcDbEntity
  8
0
  6
Continuous
 62
     7
370
    15
100
AcDbLine
 10
6.9506343852
 20
4.7338329807
 30
0.0
 11
6.9506343852
 21
4.7240330473
 31
0.0
  0
ARC
  5
3F8
330
1F
100
AcDbEntity
  8
0
  6
Continuous
 62
     7
370
    15
100
AcDbCircle
 10
6.9506343866
 20
4.7515330137
 30
0.0
 40
0.0177000000000005
100
AcDbArc
 50
270.0
 51
90.0
  0
LINE
  5
3F9
330
1F
100
AcDbEntity
  8
0
  6
Continuous
 62
     7
370
    15
100
AcDbLine
 10
6.9506343852
 20
4.7790329986
 30
0.0
 11
6.9506343852
 21
4.7692329918
 31
0.0
  0
LINE
  5
3FA
330
1F
100
AcDbEntity
  8
0
  6
Continuous
 62
     7
370
    15
100
AcDbLine
 10
6.9866344026
 20
4.7790329986
 30
0.0
 11
6.9506343852
 21
4.7790329986
 31
0.0
  0
LINE
  5
3FB
330
1F
100
AcDbEntity
  8
0
  6
Continuous
 62
     7
370
    15
100
AcDbLine
 10
6.9506343852
 20
4.7240330473
 30
0.0
 11
6.9866344026
 21
4.7240330473
 31
0.0
  0
ARC
  5
3FC
330
1F
100
AcDbEntity
  8
0
  6
Continuous
 62
     7
370
    15
100
AcDbCircle
 10
6.9866343866
 20
4.7515330137
 30
0.0
 40
0.0274999999999999
100
AcDbArc
 50
270.0
 51
90.0
  0
LINE
  5
3FD
330
1F
100
AcDbEntity
  8
0
  6
Continuous
 62
     7
370
    15
100
AcDbLine
 10
7.2069745439
 20
4.6274331899
 30
0.0
 11
7.2569745396
 21
4.6274331899
 31
0.0
  0
LINE
  5
3FE
330
1F
100
AcDbEntity
  8
0
  6
Continuous
 62
     7
370
    15
100
AcDbLine
 10
7.2069745439
 20
4.6774331856
 30
0.0
 11
7.2069745439
 21
4.6274331899
 31
0.0
  0
LINE
  5
3FF
330
1F
100
AcDbEntity
  8
0
  6
Continuous
 62
     7
370
    15
100
AcDbLine
 10
7.2069745439
 20
4.6774331856
 30
0.0
 11
7.2569745396
 21
4.6774331856
 31
0.0
  0
LINE
  5
400
330
1F
100
AcDbEntity
  8
0
  6
Continuous
 62
     7
370
    15
100
AcDbLine
 10
7.2569745396
 20
4.6774331856
 30
0.0
 11
7.2569745396
 21
4.6274331899
 31
0.0
  0
LINE
  5
401
330
1F
100
AcDbEntity
  8
0
  6
Continuous
 62
     7
370
    15
100
AcDbLine
 10
7.1282343735
 20
4.6274331899
 30
0.0
 11
7.1782343692
 21
4.6274331899
 31
0.0
  0
LINE
  5
402
330
1F
100
AcDbEntity
  8
0
  6
Continuous
 62
     7
370
    15
100
AcDbLine
 10
7.1282343735
 20
4.6774331856
 30
0.0
 11
7.1282343735
 21
4.6274331899
 31
0.0
  0
LINE
  5
403
330
1F
100
AcDbEntity
  8
0
  6
Continuous
 62
     7
370
    15
100
AcDbLine
 10
7.1282343735
 20
4.6774331856
 30
0.0
 11
7.1782343692
 21
4.6774331856
 31
0.0
  0
LINE
  5
404
330
1F
100
AcDbEntity
  8
0
  6
Continuous
 62
     7
370
    15
100
AcDbLine
 10
7.1782343692
 20
4.6774331856
 30
0.0
 11
7.1782343692
 21
4.6274331899
 31
0.0
  0
LINE
  5
405
330
1F
100
AcDbEntity
  8
0
  6
Continuous
 62
     7
370
    15
100
AcDbLine
 10
7.0494942031
 20
4.6274331899
 30
0.0
 11
7.0994941989
 21
4.6274331899
 31
0.0
  0
LINE
  5
406
330
1F
100
AcDbEntity
  8
0
  6
Continuous
 62
     7
370
    15
100
AcDbLine
 10
7.0494942031
 20
4.6774331856
 30
0.0
 11
7.0494942031
 21
4.6274331899
 31
0.0
  0
LINE
  5
407
330
1F
100
AcDbEntity
  8
0
  6
Continuous
 62
     7
370
    15
100
AcDbLine
 10
7.0994941989
 20
4.6774331856
 30
0.0
 11
7.0994941989
 21
4.6274331899
 31
0.0
  0
LINE
  5
408
330
1F
100
AcDbEntity
  8
0
  6
Continuous
 62
     7
370
    15
100
AcDbLine
 10
7.0494942031
 20
4.6774331856
 30
0.0
 11
7.0994941989
 21
4.6774331856
 31
0.0
  0
LINE
  5
409
330
1F
100
AcDbEntity
  8
0
  6
Continuous
 62
     7
370
    15
100
AcDbLine
 10
6.9507344107
 20
4.9365331391
 30
0.0
 11
6.9507344107
 21
4.9759332173
 31
0.0
  0
LINE
  5
40A
330
1F
100
AcDbEntity
  8
0
  6
Continuous
 62
     7
370
    15
100
AcDbLine
 10
6.9507344107
 20
4.9759332173
 30
0.0
 11
7.8167343866
 21
4.9759332173
 31
0.0
  0
LINE
  5
40B
330
1F
100
AcDbEntity
  8
0
  6
Continuous
 62
     7
370
    15
100
AcDbLine
 10
7.8167343866
 20
3.6459331549
 30
0.0
 11
7.6867343867
 21
3.6459331549
 31
0.0
  0
LINE
  5
40C
330
1F
100
AcDbEntity
  8
0
  6
Continuous
 62
     7
370
    15
100
AcDbLine
 10
7.6317343804
 20
3.6459331549
 30
0.0
 11
7.6080343842
 21
3.6459331549
 31
0.0
  0
LINE
  5
40D
330
1F
100
AcDbEntity
  8
0
  6
Continuous
 62
     7
370
    15
100
AcDbLine
 10
7.5530343779
 20
3.6459331549
 30
0.0
 11
7.5292343928
 21
3.6459331549
 31
0.0
  0
LINE
  5
40E
330
1F
100
AcDbEntity
  8
0
  6
Continuous
 62
     7
370
    15
100
AcDbLine
 10
7.4742343865
 20
3.6459331549
 30
0.0
 11
7.4505343903
 21
3.6459331549
 31
0.0
  0
LINE
  5
40F
330
1F
100
AcDbEntity
  8
0
  6
Continuous
 62
     7
370
    15
100
AcDbLine
 10
7.3955344023
 20
3.6459331549
 30
0.0
 11
7.3717343806
 21
3.6459331549
 31
0.0
  0
LINE
  5
410
330
1F
100
AcDbEntity
  8
0
  6
Continuous
 62
     7
370
    15
100
AcDbLine
 10
7.3167343926
 20
3.6459331549
 30
0.0
 11
7.2930343964
 21
3.6459331549
 31
0.0
  0
LINE
  5
411
330
1F
100
AcDbEntity
  8
0
  6
Continuous
 62
     7
370
    15
100
AcDbLine
 10
7.2380343718
 20
3.6459331549
 30
0.0
 11
7.2143343755
 21
3.6459331549
 31
0.0
  0
LINE
  5
412
330
1F
100
AcDbEntity
  8
0
  6
Continuous
 62
     7
370
    15
100
AcDbLine
 10
7.1593343876
 20
3.6459331549
 30
0.0
 11
7.1355344025
 21
3.6459331549
 31
0.0
  0
LINE
  5
413
330
1F
100
AcDbEntity
  8
0
  6
Continuous
 62
     7
370
    15
100
AcDbLine
 10
7.0805343779
 20
3.6459331549
 30
0.0
 11
6.9507344107
 21
3.6459331549
 31
0.0
  0
LINE
  5
414
330
1F
100
AcDbEntity
  8
0
  6
Continuous
 62
     7
370
    15
100
AcDbLine
 10
6.9507344107
 20
4.7790329986
 30
0.0
 11
6.9507344107
 21
4.8028331303
 31
0.0
  0
LINE
  5
415
330
1F
100
AcDbEntity
  8
0
  6
Continuous
 62
     7
370
    15
100
AcDbLine
 10
6.9507344107
 20
4.857833155
 30
0.0
 11
6.9507344107
 21
4.8815331878
 31
0.0
  0
LINE
  5
416
330
1F
100
AcDbEntity
  8
0
  6
Continuous
 62
     7
370
    15
100
AcDbLine
 10
6.9507344107
 20
4.1491331586
 30
0.0
 11
6.9507344107
 21
4.1729331436
 31
0.0
  0
LINE
  5
417
330
1F
100
AcDbEntity
  8
0
  6
Continuous
 62
     7
370
    15
100
AcDbLine
 10
6.9507344107
 20
4.0704331377
 30
0.0
 11
6.9507344107
 21
4.0941331706
 31
0.0
  0
LINE
  5
418
330
1F
100
AcDbEntity
  8
0
  6
Continuous
 62
     7
370
    15
100
AcDbLine
 10
6.9507344107
 20
4.2279331683
 30
0.0
 11
6.9507344107
 21
4.2516331645
 31
0.0
  0
LINE
  5
419
330
1F
100
AcDbEntity
  8
0
  6
Continuous
 62
     7
370
    15
100
AcDbLine
 10
6.9507344107
 20
3.7554331591
 30
0.0
 11
6.9507344107
 21
3.7792331534
 31
0.0
  0
LINE
  5
41A
330
1F
100
AcDbEntity
  8
0
  6
Continuous
 62
     7
370
    15
100
AcDbLine
 10
6.9507344107
 20
4.3853331733
 30
0.0
 11
6.9507344107
 21
4.4091331584
 31
0.0
  0
LINE
  5
41B
330
1F
100
AcDbEntity
  8
0
  6
Continuous
 62
     7
370
    15
100
AcDbLine
 10
6.9507344107
 20
3.6459331549
 30
0.0
 11
6.9507344107
 21
3.7004331528
 31
0.0
  0
LINE
  5
41C
330
1F
100
AcDbEntity
  8
0
  6
Continuous
 62
     7
370
    15
100
AcDbLine
 10
6.9507344107
 20
4.6216331769
 30
0.0
 11
6.9507344107
 21
4.6453331364
 31
0.0
  0
LINE
  5
41D
330
1F
100
AcDbEntity
  8
0
  6
Continuous
 62
     7
370
    15
100
AcDbLine
 10
6.9507344107
 20
4.5428331672
 30
0.0
 11
6.9507344107
 21
4.5666331523
 31
0.0
  0
LINE
  5
41E
330
1F
100
AcDbEntity
  8
0
  6
Continuous
 62
     7
370
    15
100
AcDbLine
 10
6.9507344107
 20
3.8342331597
 30
0.0
 11
6.9507344107
 21
3.8579331559
 31
0.0
  0
LINE
  5
41F
330
1F
100
AcDbEntity
  8
0
  6
Continuous
 62
     7
370
    15
100
AcDbLine
 10
6.9507344107
 20
3.9129331622
 30
0.0
 11
6.9507344107
 21
3.9366331584
 31
0.0
  0
LINE
  5
420
330
1F
100
AcDbEntity
  8
0
  6
Continuous
 62
     7
370
    15
100
AcDbLine
 10
6.9507344107
 20
4.3066331891
 30
0.0
 11
6.9507344107
 21
4.3303331487
 31
0.0
  0
LINE
  5
421
330
1F
100
AcDbEntity
  8
0
  6
Continuous
 62
     7
370
    15
100
AcDbLine
 10
6.9507344107
 20
3.9916331647
 30
0.0
 11
6.9507344107
 21
4.0154331498
 31
0.0
  0
LINE
  5
422
330
1F
100
AcDbEntity
  8
0
  6
Continuous
 62
     7
370
    15
100
AcDbLine
 10
6.9507344107
 20
4.464133183
 30
0.0
 11
6.9507344107
 21
4.4878331426
 31
0.0
  0
LINE
  5
423
330
1F
100
AcDbEntity
  8
0
  6
Continuous
 62
     7
370
    15
100
AcDbLine
 10
6.9507344107
 20
4.7003331611
 30
0.0
 11
6.9507344107
 21
4.7240330473
 31
0.0
  0
LINE
  5
424
330
1F
100
AcDbEntity
  8
0
  6
Continuous
 62
     7
370
    15
100
AcDbLine
 10
7.8167343866
 20
3.7004331528
 30
0.0
 11
7.8167343866
 21
3.6459331549
 31
0.0
  0
LINE
  5
425
330
1F
100
AcDbEntity
  8
0
  6
Continuous
 62
     7
370
    15
100
AcDbLine
 10
7.8167343866
 20
3.7792331534
 30
0.0
 11
7.8167343866
 21
3.7554331591
 31
0.0
  0
LINE
  5
426
330
1F
100
AcDbEntity
  8
0
  6
Continuous
 62
     7
370
    15
100
AcDbLine
 10
7.8167343866
 20
4.9759332173
 30
0.0
 11
7.8167343866
 21
4.7004331866
 31
0.0
  0
LINE
  5
427
330
1F
100
AcDbEntity
  8
0
  6
Continuous
 62
     7
370
    15
100
AcDbLine
 10
7.8167343866
 20
3.9366331584
 30
0.0
 11
7.8167343866
 21
3.9129331622
 31
0.0
  0
LINE
  5
428
330
1F
100
AcDbEntity
  8
0
  6
Continuous
 62
     7
370
    15
100
AcDbLine
 10
7.8167343866
 20
4.5666331523
 30
0.0
 11
7.8167343866
 21
4.5428331672
 31
0.0
  0
LINE
  5
429
330
1F
100
AcDbEntity
  8
0
  6
Continuous
 62
     7
370
    15
100
AcDbLine
 10
7.8167343866
 20
4.4878331426
 30
0.0
 11
7.8167343866
 21
4.464133183
 31
0.0
  0
LINE
  5
42A
330
1F
100
AcDbEntity
  8
0
  6
Continuous
 62
     7
370
    15
100
AcDbLine
 10
7.8167343866
 20
4.4091331584
 30
0.0
 11
7.8167343866
 21
4.3853331733
 31
0.0
  0
LINE
  5
42B
330
1F
100
AcDbEntity
  8
0
  6
Continuous
 62
     7
370
    15
100
AcDbLine
 10
7.8167343866
 20
4.3303331487
 30
0.0
 11
7.8167343866
 21
4.3066331891
 31
0.0
  0
LINE
  5
42C
330
1F
100
AcDbEntity
  8
0
  6
Continuous
 62
     7
370
    15
100
AcDbLine
 10
7.8167343866
 20
4.2516331645
 30
0.0
 11
7.8167343866
 21
4.2279331683
 31
0.0
  0
LINE
  5
42D
330
1F
100
AcDbEntity
  8
0
  6
Continuous
 62
     7
370
    15
100
AcDbLine
 10
7.8167343866
 20
4.1729331436
 30
0.0
 11
7.8167343866
 21
4.1491331586
 31
0.0
  0
LINE
  5
42E
330
1F
100
AcDbEntity
  8
0
  6
Continuous
 62
     7
370
    15
100
AcDbLine
 10
7.8167343866
 20
3.8579331559
 30
0.0
 11
7.8167343866
 21
3.8342331597
 31
0.0
  0
LINE
  5
42F
330
1F
100
AcDbEntity
  8
0
  6
Continuous
 62
     7
370
    15
100
AcDbLine
 10
7.8167343866
 20
4.6454331619
 30
0.0
 11
7.8167343866
 21
4.6216331769
 31
0.0
  0
LINE
  5
430
330
1F
100
AcDbEntity
  8
0
  6
Continuous
 62
     7
370
    15
100
AcDbLine
 10
7.8167343866
 20
4.0941331706
 30
0.0
 11
7.8167343866
 21
4.0704331377
 31
0.0
  0
LINE
  5
431
330
1F
100
AcDbEntity
  8
0
  6
Continuous
 62
     7
370
    15
100
AcDbLine
 10
7.8167343866
 20
4.0154331498
 30
0.0
 11
7.8167343866
 21
3.9916331647
 31
0.0
  0
LINE
  5
432
330
1F
100
AcDbEntity
  8
0
  6
Continuous
 62
     7
370
    15
100
AcDbLine
 10
7.6868843883
 20
3.6458331549
 30
0.0
 11
7.6868843883
 21
3.6459331549
 31
0.0
  0
LINE
  5
433
330
1F
100
AcDbEntity
  8
0
  6
Continuous
 62
     7
370
    15
100
AcDbLine
 10
7.6868843883
 20
3.6458331549
 30
0.0
 11
7.6867343867
 21
3.6458331549
 31
0.0
  0
LINE
  5
434
330
1F
100
AcDbEntity
  8
0
  6
Continuous
 62
     7
370
    15
100
AcDbLine
 10
7.6081843858
 20
3.6458331549
 30
0.0
 11
7.6081843858
 21
3.6459331549
 31
0.0
  0
LINE
  5
435
330
1F
100
AcDbEntity
  8
0
  6
Continuous
 62
     7
370
    15
100
AcDbLine
 10
7.6081843858
 20
3.6458331549
 30
0.0
 11
7.6080343842
 21
3.6458331549
 31
0.0
  0
LINE
  5
436
330
1F
100
AcDbEntity
  8
0
  6
Continuous
 62
     7
370
    15
100
AcDbLine
 10
7.5293843944
 20
3.6458331549
 30
0.0
 11
7.5292343928
 21
3.6458331549
 31
0.0
  0
LINE
  5
437
330
1F
100
AcDbEntity
  8
0
  6
Continuous
 62
     7
370
    15
100
AcDbLine
 10
7.5293843944
 20
3.6458331549
 30
0.0
 11
7.5293843944
 21
3.6459331549
 31
0.0
  0
LINE
  5
438
330
1F
100
AcDbEntity
  8
0
  6
Continuous
 62
     7
370
    15
100
AcDbLine
 10
7.4506843919
 20
3.6458331549
 30
0.0
 11
7.4505343903
 21
3.6458331549
 31
0.0
  0
LINE
  5
439
330
1F
100
AcDbEntity
  8
0
  6
Continuous
 62
     7
370
    15
100
AcDbLine
 10
7.4506843919
 20
3.6458331549
 30
0.0
 11
7.4506843919
 21
3.6459331549
 31
0.0
  0
LINE
  5
43A
330
1F
100
AcDbEntity
  8
0
  6
Continuous
 62
     7
370
    15
100
AcDbLine
 10
7.3718843822
 20
3.6458331549
 30
0.0
 11
7.3718843822
 21
3.6459331549
 31
0.0
  0
LINE
  5
43B
330
1F
100
AcDbEntity
  8
0
  6
Continuous
 62
     7
370
    15
100
AcDbLine
 10
7.3718843822
 20
3.6458331549
 30
0.0
 11
7.3717343806
 21
3.6458331549
 31
0.0
  0
LINE
  5
43C
330
1F
100
AcDbEntity
  8
0
  6
Continuous
 62
     7
370
    15
100
AcDbLine
 10
7.293184398
 20
3.6458331549
 30
0.0
 11
7.2930343964
 21
3.6458331549
 31
0.0
  0
LINE
  5
43D
330
1F
100
AcDbEntity
  8
0
  6
Continuous
 62
     7
370
    15
100
AcDbLine
 10
7.293184398
 20
3.6458331549
 30
0.0
 11
7.293184398
 21
3.6459331549
 31
0.0
  0
LINE
  5
43E
330
1F
100
AcDbEntity
  8
0
  6
Continuous
 62
     7
370
    15
100
AcDbLine
 10
7.2144843771
 20
3.6458331549
 30
0.0
 11
7.2143343755
 21
3.6458331549
 31
0.0
  0
LINE
  5
43F
330
1F
100
AcDbEntity
  8
0
  6
Continuous
 62
     7
370
    15
100
AcDbLine
 10
7.2144843771
 20
3.6458331549
 30
0.0
 11
7.2144843771
 21
3.6459331549
 31
0.0
  0
LINE
  5
440
330
1F
100
AcDbEntity
  8
0
  6
Continuous
 62
     7
370
    15
100
AcDbLine
 10
7.1356843674
 20
3.6458331549
 30
0.0
 11
7.1355344025
 21
3.6458331549
 31
0.0
  0
LINE
  5
441
330
1F
100
AcDbEntity
  8
0
  6
Continuous
 62
     7
370
    15
100
AcDbLine
 10
7.1356843674
 20
3.6458331549
 30
0.0
 11
7.1356843674
 21
3.6459331549
 31
0.0
  0
LINE
  5
442
330
1F
100
AcDbEntity
  8
0
  6
Continuous
 62
     7
370
    15
100
AcDbLine
 10
6.9506343852
 20
4.7790329986
 30
0.0
 11
6.9506343852
 21
4.7791831835
 31
0.0
  0
LINE
  5
443
330
1F
100
AcDbEntity
  8
0
  6
Continuous
 62
     7
370
    15
100
AcDbLine
 10
6.9507344107
 20
4.7791831835
 30
0.0
 11
6.9506343852
 21
4.7791831835
 31
0.0
  0
LINE
  5
444
330
1F
100
AcDbEntity
  8
0
  6
Continuous
 62
     7
370
    15
100
AcDbLine
 10
6.9506343852
 20
4.9365331391
 30
0.0
 11
6.9506343852
 21
4.9366831774
 31
0.0
  0
LINE
  5
445
330
1F
100
AcDbEntity
  8
0
  6
Continuous
 62
     7
370
    15
100
AcDbLine
 10
6.9507344107
 20
4.9366831774
 30
0.0
 11
6.9506343852
 21
4.9366831774
 31
0.0
  0
LINE
  5
446
330
1F
100
AcDbEntity
  8
0
  6
Continuous
 62
     7
370
    15
100
AcDbLine
 10
6.9506343852
 20
4.857833155
 30
0.0
 11
6.9506343852
 21
4.8579831199
 31
0.0
  0
LINE
  5
447
330
1F
100
AcDbEntity
  8
0
  6
Continuous
 62
     7
370
    15
100
AcDbLine
 10
6.9507344107
 20
4.8579831199
 30
0.0
 11
6.9506343852
 21
4.8579831199
 31
0.0
  0
LINE
  5
448
330
1F
100
AcDbEntity
  8
SLD-0
100
AcDbLine
 10
7.7532343866
 20
4.7596131861
 30
0.0
 11
7.7532343866
 21
3.5690157521
 31
0.0
  0
LINE
  5
449
330
1F
100
AcDbEntity
  8
SLD-0
100
AcDbLine
 10
7.0494942291
 20
4.6524331549
 30
0.0
 11
7.3563671552
 21
4.6524331549
 31
0.0
  0
LINE
  5
44A
330
1F
100
AcDbEntity
  8
SLD-0
100
AcDbLine
 10
7.0744942291
 20
4.7043272992
 30
0.0
 11
7.0744942291
 21
4.5552931777
 31
0.0
  0
LINE
  5
44B
330
1F
100
AcDbEntity
  8
SLD-0
100
AcDbLine
 10
7.1532343866
 20
4.7043272992
 30
0.0
 11
7.1532343866
 21
4.5552931777
 31
0.0
  0
DIMENSION
  5
44C
330
1F
100
AcDbEntity
  8
SLD-0
100
AcDbDimension
  2
_D_8
 10
7.8167343866
 20
3.3071886578
 30
0.0
 11
8.1853231652
 21
3.3071886578
 31
0.0
 70
   160
  1
<>
 71
     2
 42
-1.0
  3
SLDDIMSTYLE0
100
AcDbAlignedDimension
 13
7.7532343866
 23
3.5690157521
 33
0.0
 14
7.8167343866
 24
3.6459331549
 34
0.0
100
AcDbRotatedDimension
  0
DIMENSION
  5
458
330
1F
100
AcDbEntity
  8
SLD-0
100
AcDbDimension
  2
_D_9
 10
6.9507343866
 20
4.2473338598
 30
0.0
 11
6.4829197137
 21
4.2473338598
 31
0.0
 70
   160
  1
<>
 71
     2
 42
-1.0
  3
SLDDIMSTYLE0
100
AcDbAlignedDimension
 13
7.0744942291
 23
4.5552931777
 33
0.0
 14
6.9507343866
 24
4.5330331549
 34
0.0
100
AcDbRotatedDimension
  0
DIMENSION
  5
464
330
1F
100
AcDbEntity
  8
SLD-0
100
AcDbDimension
  2
_D_10
 10
7.1532343866
 20
4.4188124685
 30
0.0
 11
6.5569335992
 21
4.4188124685
 31
0.0
 70
   160
  1
<>
 71
     2
 42
-1.0
  3
SLDDIMSTYLE0
100
AcDbAlignedDimension
 13
7.0744942291
 23
4.5552931777
 33
0.0
 14
7.1532343866
 24
4.5552931777
 34
0.0
100
AcDbRotatedDimension
  0
DIMENSION
  5
470
330
1F
100
AcDbEntity
  8
SLD-0
100
AcDbDimension
  2
_D_11
 10
7.8167343866
 20
4.9759331549
 30
0.0
 11
7.8167343866
 21
4.463377356
 31
0.0
 70
   160
  1
<>
 71
     2
 42
-1.0
  3
SLDDIMSTYLE3
100
AcDbAlignedDimension
 13
7.3563671552
 23
4.6524331549
 33
0.0
 14
7.8167343866
 24
4.9759331549
 34
0.0
 50
90.0
100
AcDbRotatedDimension
  0
DIMENSION
  5
47B
330
1F
100
AcDbEntity
  8
SLD-0
100
AcDbDimension
  2
_D_12
 10
7.1868343866
 20
3.6818331549
 30
0.0
 11
7.449900151
 21
4.1374761365
 31
0.0
 70
   164
  1
(<>)
 71
     1
 42
-1.0
  3
SLDDIMSTYLE4
100
AcDbRadialDimension
 15
7.2005843866
 25
3.7056488535
 35
0.0
 40
0.0
  0
DIMENSION
  5
487
330
1F
100
AcDbEntity
  8
SLD-0
100
AcDbDimension
  2
_D_13
 10
7.3442343866
 20
3.6458331549
 30
0.0
 11
7.5545123186
 21
4.0100449287
 31
0.0
 70
   164
  1
(<>)
 71
     1
 42
-1.0
  3
SLDDIMSTYLE4
100
AcDbRadialDimension
 15
7.3530843866
 25
3.6611618046
 35
0.0
 40
0.0
  0
DIMENSION
  5
492
330
1F
100
AcDbEntity
  8
SLD-0
100
AcDbDimension
  2
_D_14
 10
7.256974544
 20
5.4988264988
 30
0.0
 11
6.8069748101
 21
5.4988264988
 31
0.0
 70
   160
  1
(<>)
 71
     2
 42
-1.0
  3
SLDDIMSTYLE2
100
AcDbAlignedDimension
 13
7.206974544
 23
4.6774331549
 33
0.0
 14
7.256974544
 24
4.6774331549
 34
0.0
100
AcDbRotatedDimension
  0
ENDSEC
  0
SECTION
  2
OBJECTS
  0
DICTIONARY
  5
C
330
0
100
AcDbDictionary
281
     1
  3
ACAD_GROUP
350
D
  3
ACAD_LAYOUT
350
1A
  3
ACAD_MLINESTYLE
350
17
  3
ACAD_PLOTSETTINGS
350
19
  3
ACAD_PLOTSTYLENAME
350
E
  0
DICTIONARY
  5
D
102
{ACAD_REACTORS
330
C
102
}
330
C
100
AcDbDictionary
281
     1
  0
DICTIONARY
  5
1A
102
{ACAD_REACTORS
330
C
102
}
330
C
100
AcDbDictionary
281
     1
  3
Layout1
350
1E
  3
Layout2
350
26
  3
Model
350
22
  0
DICTIONARY
  5
17
102
{ACAD_REACTORS
330
C
102
}
330
C
100
AcDbDictionary
281
     1
  3
Standard
350
18
  0
DICTIONARY
  5
19
102
{ACAD_REACTORS
330
C
102
}
330
C
100
AcDbDictionary
281
     1
  0
ACDBDICTIONARYWDFLT
  5
E
102
{ACAD_REACTORS
330
C
102
}
330
C
100
AcDbDictionary
281
     1
  3
Normal
350
F
100
AcDbDictionaryWithDefault
340
F
  0
LAYOUT
  5
1E
102
{ACAD_REACTORS
330
1A
102
}
330
1A
100
AcDbPlotSettings
  1

  2
none_device
  4

  6

 40
0.0
 41
0.0
 42
0.0
 43
0.0
 44
0.0
 45
0.0
 46
0.0
 47
0.0
 48
0.0
 49
0.0
140
0.0
141
0.0
142
1.0
143
1.0
 70
   688
 72
     0
 73
     0
 74
     5
  7

 75
    16
147
1.0
148
0.0
149
0.0
100
AcDbLayout
  1
Layout1
 70
     1
 71
     1
 10
0.0
 20
0.0
 11
12.0
 21
9.0
 12
0.0
 22
0.0
 32
0.0
 14
1.0000000000E+20
 24
1.0000000000E+20
 34
1.0000000000E+20
 15
-1.0000000000E+20
 25
-1.0000000000E+20
 35
-1.0000000000E+20
146
0.0
 13
0.0
 23
0.0
 33
0.0
 16
1.0
 26
0.0
 36
0.0
 17
0.0
 27
1.0
 37
0.0
 76
     0
330
1B
  0
LAYOUT
  5
26
102
{ACAD_REACTORS
330
1A
102
}
330
1A
100
AcDbPlotSettings
  1

  2
none_device
  4

  6

 40
0.0
 41
0.0
 42
0.0
 43
0.0
 44
0.0
 45
0.0
 46
0.0
 47
0.0
 48
0.0
 49
0.0
140
0.0
141
0.0
142
1.0
143
1.0
 70
   688
 72
     0
 73
     0
 74
     5
  7

 75
    16
147
1.0
148
0.0
149
0.0
100
AcDbLayout
  1
Layout2
 70
     1
 71
     2
 10
0.0
 20
0.0
 11
0.0
 21
0.0
 12
0.0
 22
0.0
 32
0.0
 14
0.0
 24
0.0
 34
0.0
 15
0.0
 25
0.0
 35
0.0
146
0.0
 13
0.0
 23
0.0
 33
0.0
 16
1.0
 26
0.0
 36
0.0
 17
0.0
 27
1.0
 37
0.0
 76
     0
330
23
  0
LAYOUT
  5
22
102
{ACAD_REACTORS
330
1A
102
}
330
1A
100
AcDbPlotSettings
  1

  2
none_device
  4

  6

 40
0.0
 41
0.0
 42
0.0
 43
0.0
 44
0.0
 45
0.0
 46
0.0
 47
0.0
 48
0.0
 49
0.0
140
0.0
141
0.0
142
1.0
143
1.0
 70
  1712
 72
     0
 73
     0
 74
     0
  7

 75
     0
147
1.0
148
0.0
149
0.0
100
AcDbLayout
  1
Model
 70
     1
 71
     0
 10
0.0
 20
0.0
 11
11.0
 21
8.5
 12
0.0
 22
0.0
 32
0.0
 14
0.0
 24
0.0
 34
0.0
 15
11.0
 25
8.5
 35
0.0
146
0.0
 13
0.0
 23
0.0
 33
0.0
 16
1.0
 26
0.0
 36
0.0
 17
0.0
 27
1.0
 37
0.0
 76
     0
330
1F
331
29
  0
MLINESTYLE
  5
18
102
{ACAD_REACTORS
330
17
102
}
330
17
100
AcDbMlineStyle
  2
Standard
 70
     0
  3

 62
   256
 51
90.0
 52
90.0
 71
     2
 49
0.5
 62
   256
  6
BYLAYER
 49
-0.5
 62
   256
  6
BYLAYER
  0
ACDBPLACEHOLDER
  5
F
102
{ACAD_REACTORS
330
E
102
}
330
E
  0
ENDSEC
  0
EOF
